Oops.. Este post tiene los enlaces eliminados!

Identi revisa las denuncias de los usuarios en busca de enlaces eliminados que no dejan descargar los archivos, este mensaje te informa que este post que estas viendo tiene los enlaces eliminados.

Usa el Buscador

Por favor, te recomendamos que uses el buscador para encontrar más alternativas.

Drácula de Bram Stoker 1992

  • Categoría: Reciclaje
  • Publicado hace más de 2 años









Drácula de Bram Stoker es un americano 1992 de terror erótico drama películadirigida y producida por Francis Ford Coppola , basada en la novela Drácula deBram Stoker . Está protagonizada por Gary Oldman como el Conde Drácula , Winona Ryder como Mina Harker , Anthony Hopkins como profesor Abraham Van Helsing , y Keanu Reeves como Jonathan Harker .




Drácula de Bram Stoker fue recibido por una recepción crítica positiva en general y fue un éxito de taquilla, aunque el rendimiento de Reeves fue objeto de burlas.La banda sonora fue compuesta por Wojciech Kilar y ofreció " Love Song para un vampiro " por Annie Lennox , que se convirtió en un éxito internacional, ya que el tema de los créditos de cierre.













Format/Info                      : Audio Video Interleave

File size                        : 1 015 MiB

Duration                         : 2h 7mn

Overall bit rate                 : 1 112 Kbps

Writing application              : MEncoder SVN-r30881(20100311-gcc4.3.3)

Writing library                  : MPlayer



Video

ID                               : 0

Format                           : MPEG-4 Visual

Format profile                   : Advanced [email protected]

Format settings, BVOP            : 2

Format settings, QPel            : No

Format settings, GMC             : No warppoints

Format settings, Matrix          : Default (H.263)

Codec ID                         : XVID

Codec ID/Hint                    : XviD

Duration                         : 2h 7mn

Bit rate                         : 972 Kbps

Width                            : 720 pixels

Height                           : 480 pixels

Display aspect ratio             : 3:2

Frame rate                       : 24.000 fps

Standard                         : NTSC

Color space                      : YUV

Chroma subsampling               : 4:2:0

Bit depth                        : 8 bits

Scan type                        : Progressive

Compression mode                 : Lossy

Bits/(Pixel*Frame)               : 0.117

Stream size                      : 887 MiB (87%)

Writing library                  : XviD 1.2.1



Audio

ID                               : 1

Format                           : MPEG Audio

Format version                   : Version 1

Format profile                   : Layer 3

Mode                             : Joint stereo

Mode extension                   : MS Stereo

Codec ID                         : 55

Codec ID/Hint                    : MP3

Duration                         : 2h 7mn

Bit rate mode                    : Constant

Bit rate                         : 128 Kbps

Channel(s)                       : 2 channels

Sampling rate                    : 44.1 KHz

Compression mode                 : Lossy

Delay relative to video          : 42ms

Stream size                      : 117 MiB (12%)

Alignment                        : Aligned on interleaves

Interleave, duration             : 26 ms (0.63 video frame)

Interleave, preload duration     : 522 ms





















Drácula de Bram Stoker 1992
50 Puntos Score: 8.3/10
Visitas: 1374 Favoritos: 1
Ver los usuarios que votaron...
5 Comentarios Drácula de Bram Stoker 1992
de las mejores peliculas de vampiros q han existido  
Cita ferboy007: Mostrar
cite ese comentario del amigo por que la verdad que es as?
Muy buena. La llevo.
Para dejar un comentario Registrate! o.. eres ya usuario? Accede!