VSO Video Converter v1.2.0.10 Portable

VSO Video Converter v1.2.0.10 Portable







VSO Video Converter v1.2.0.10 Portable
----------------------------------
Descripción

VSO Video Converter resulta útil para todos los usuarios que quieren rápida y fácilmente convertir sus clips a otros formatos.
Antes convertir los archivos, los usuarios pueden ajustar el brillo y el contraste del vídeo, cortar segmentos, crear capítulos o girar el clip según les convenga.
------------------------------------------------------------------------------
No necesita instalar nada, solo extraer y ejecutar
------------------------------------------------------------------------------

Peso comprimido 33.8 MB descomprimido 80.9 MB








Converti un DVD a XviD en 30 min aprox con este programa con muy buenos resultados

Format                                   : MPEG-4 Visual
Format profile                           : Advanced [email protected]
Format settings, BVOP                    : No
Format settings, QPel                    : No
Format settings, GMC                     : No warppoints
Format settings, Matrix                  : Default (H.263)
Codec ID                                 : XVID
Codec ID/Hint                            : XviD
Duration                                 : 1h 10mn
Bit rate                                 : 2 195 Kbps
Width                                    : 720 pixels
Height                                   : 480 pixels
Display aspect ratio                     : 4:3
Frame rate                               : 29.970 fps
Standard                                 : NTSC
Color space                              : YUV
Chroma subsampling                       : 4:2:0
Bit depth                                : 8 bits
Scan type                                : Progressive
Compression mode                         : Lossy
Bits/(Pixel*Frame)                       : 0.212
Stream size                              : 1.08 GiB (91%)
Writing library                          : Lavc55.12.100

Audio
ID                                       : 1
Format                                   : MPEG Audio
Format version                           : Version 1
Format profile                           : Layer 3
Mode                                     : Joint stereo
Mode extension                           : MS Stereo
Codec ID                                 : 55
Codec ID/Hint                            : MP3
Duration                                 : 1h 10mn
Bit rate mode                            : Constant
Bit rate                                 : 192 Kbps
Channel(s)                               : 2 channels
Sampling rate                            : 48.0 KHz
Compression mode                         : Lossy
Stream size                              : 96.5 MiB (8%)
Alignment                                : Aligned on interleaves
Interleave, duration                     : 24 ms (0.72 video frame)
Interleave, preload duration             : 24 ms
Writing library                          : LAME3.99.5ªª






Enlaces De Descarga
VSO Video Converter v1.2.0.10 Portable
35 Puntos Score: 7/10
Visitas: 1036 Favoritos: 3
Ver los usuarios que votaron...
7 Comentarios VSO Video Converter v1.2.0.10 Portable
@AntiPro Gracias x los puntos men
Oye pero no tiene parche ni serial ni nada! Es free??????????
@Mirabai Esta version no necesita parche ni serial ni nada, yo mismo lo registre antes de hacerlo portable, ya viene full desde que lo bajas. Por cierto, gracias x los puntos

@Stifler232 Gracias x los puntos  
Vamos a probarlo, gracias por compartir.+5
Cita Darkpy: Mostrar
Noooo...Gracias a ti por todo el esfuerzo que te tomaste!!!  
Para dejar un comentario Registrate! o.. eres ya usuario? Accede!