Reasonable Doubt [HDRip 720p][Castellano][2014]




La película tambien titulada ?The Good Samaritan? trata sobre un fiscal de distrito tiene su vida al revés cuando está implicado en un atropello y fuga y otro hombre es arrestado por su crimen y acusado de asesinato.



Título original: Reasonable Doubt
Año: 2014
Duración: 91 min.
País:  Canadá
Director: Peter Howitt
Guión: Peter A. Dowling
Música: James Jandrisch 
Fotografía: Brian Pearson 
Reparto: Samuel L. Jackson, Dominic Cooper, Erin Karpluk 
Productora: Grindstone Entertainment Group / South Creek Pictures / Bavariapool 
Género: Thriller | Crimen

General
Format                                   : Matroska
Format version                           : Version 4 / Version 2
File size                                : 808 MiB
Duration                                 : 1h 31mn
Overall bit rate                         : 1 237 Kbps
Encoded date                             : UTC 2014-04-20 16:24:22
Writing application                      : mkvmerge v6.9.1 ('Blue Panther') 64bit built on Apr 18 2014 18:23:38
Writing library                          : libebml v1.3.0 + libmatroska v1.4.1

Video
ID                                       : 1
Format                                   : AVC
Format/Info                              : Advanced Video Codec
Format profile                           : [email protected]
Format settings, CABAC                   : Yes
Format settings, ReFrames                : 4 frames
Codec ID                                 : V_MPEG4/ISO/AVC
Duration                                 : 1h 31mn
Bit rate                                 : 765 Kbps
Nominal bit rate                         : 1 050 Kbps
Width                                    : 1 280 pixels
Height                                   : 534 pixels
Display aspect ratio                     : 2.40:1
Frame rate                               : 23.976 fps
Color space                              : YUV
Chroma subsampling                       : 4:2:0
Bit depth                                : 8 bits
Scan type                                : Progressive
Bits/(Pixel*Frame)                       : 0.047
Stream size                              : 499 MiB (62%)
Writing library                          : x264 core 135 r2 f0c1c53
Encoding settings                        : cabac=1 / ref=4 / deblock=1:-1:-1 / analyse=0x3:0x133 / me=umh / subme=9 / psy=1 / psy_rd=1.00:0.15 / mixed_ref=1 / me_range=24 / chroma_me=1 / trellis=2 / 8x8dct=1 / cqm=0 / deadzone=21,11 / fast_pskip=0 / chroma_qp_offset=-3 / threads=36 / lookahead_threads=3 / sliced_threads=0 / nr=0 / decimate=1 / interlaced=0 / bluray_compat=0 / constrained_intra=0 / bframes=3 / b_pyramid=2 / b_adapt=2 / b_bias=0 / direct=3 / weightb=1 / open_gop=0 / weightp=2 / keyint=250 / keyint_min=23 / scenecut=40 / intra_refresh=0 / rc_lookahead=60 / rc=2pass / mbtree=1 / bitrate=1050 / ratetol=1.0 / qcomp=0.60 / qpmin=0 / qpmax=69 / qpstep=4 / cplxblur=20.0 / qblur=0.5 / vbv_maxrate=31250 / vbv_bufsize=31250 / nal_hrd=none / ip_ratio=1.40 / aq=1:1.00
Default                                  : Yes
Forced                                   : No
Color primaries                          : BT.709-5, BT.1361, IEC 61966-2-4, SMPTE RP177
Matrix coefficients                      : BT.709-5, BT.1361, IEC 61966-2-4 709, SMPTE RP177

Audio
ID                                       : 2
Format                                   : AC-3
Format/Info                              : Audio Coding 3
Mode extension                           : CM (complete main)
Format settings, Endianness              : Big
Codec ID                                 : A_AC3
Duration                                 : 1h 31mn
Bit rate mode                            : Constant
Bit rate                                 : 448 Kbps
Channel(s)                               : 2 channels
Channel positions                        : Front: L R
Sampling rate                            : 48.0 KHz
Bit depth                                : 16 bits
Compression mode                         : Lossy
Stream size                              : 293 MiB (36%)
Default                                  : Yes
Forced                                   : No






http://www35.zippyshare.com/v/167348/file.html
http://www11.zippyshare.com/v/52378045/file.html
http://www44.zippyshare.com/v/26065254/file.html
http://www75.zippyshare.com/v/64269561/file.html
http://www60.zippyshare.com/v/53564546/file.html
Reasonable Doubt [HDRip 720p][Castellano][2014]
5 Puntos Score: 5/10
Visitas: 1727 Favoritos: 1
Ver los usuarios que votaron...
2 Comentarios Reasonable Doubt [HDRip 720p][Castellano][2014]
muchas gracias!!  
Para dejar un comentario Registrate! o.. eres ya usuario? Accede!