Nose Aceptan Devoluciones[BRSCR][Castellano][2013]





Valentín (Eugenio Derbez) es un playboy de Acapulco que un buen día se encuentra a un bebé abandonado en la puerta de su casa. Empieza a seguir pistas con el objetivo de encontrar a la madre, y ello le lleva a viajar de México a Los Ángeles. Durante seis años, Valentín se convertirá en el padre de la pequeña, a la que bautiza con el nombre de Maggie (Loreto Peralta). Pero, ¿qué ocurrirá después?



Título: No se aceptan devoluciones
Título original: No se Aceptan Devoluciones
Dirección: Eugenio Derbez
País: México
Año: 2013
Fecha de estreno: 30/04/2014
Duración: 115 min
Género: Drama, Comedia
Reparto: Hugo Stiglitz, Roger Cudney, Jesús Ochoa, Eugenio Derbez
Web: www.facebook.com/InstructionsMovie
Distribuidora: Filmax
Productora: Pantaleon Films

General
Format                                   : MPEG-4
Format profile                           : Base Media
Codec ID                                 : isom
File size                                : 734 MiB
Duration                                 : 2h 1mn
Overall bit rate mode                    : Variable
Overall bit rate                         : 842 Kbps
Writing application                      : Lavf54.63.104

Video
ID                                       : 1
Format                                   : AVC
Format/Info                              : Advanced Video Codec
Format profile                           : [email protected]
Format settings, CABAC                   : Yes
Format settings, ReFrames                : 4 frames
Codec ID                                 : avc1
Codec ID/Info                            : Advanced Video Coding
Duration                                 : 2h 1mn
Bit rate                                 : 750 Kbps
Width                                    : 720 pixels
Height                                   : 400 pixels
Display aspect ratio                     : 16:9
Frame rate mode                          : Constant
Frame rate                               : 23.976 fps
Color space                              : YUV
Chroma subsampling                       : 4:2:0
Bit depth                                : 8 bits
Scan type                                : Progressive
Bits/(Pixel*Frame)                       : 0.109
Stream size                              : 658 MiB (90%)
Writing library                          : x264 core 120 r2151 a3f4407
Encoding settings                        : cabac=1 / ref=3 / deblock=1:0:0 / analyse=0x3:0x113 / me=hex / subme=7 / psy=1 / psy_rd=1.00:0.00 / mixed_ref=1 / me_range=16 / chroma_me=1 / trellis=1 / 8x8dct=1 / cqm=0 / deadzone=21,11 / fast_pskip=1 / chroma_qp_offset=-2 / threads=16 / sliced_threads=0 / nr=0 / decimate=1 / interlaced=0 / bluray_compat=0 / constrained_intra=0 / bframes=3 / b_pyramid=2 / b_adapt=1 / b_bias=0 / direct=1 / weightb=1 / open_gop=0 / weightp=2 / keyint=25 / keyint_min=2 / scenecut=40 / intra_refresh=0 / rc_lookahead=25 / rc=abr / mbtree=1 / bitrate=750 / ratetol=1.0 / qcomp=0.60 / qpmin=0 / qpmax=69 / qpstep=4 / ip_ratio=1.40 / aq=1:1.00

Audio
ID                                       : 2
Format                                   : AAC
Format/Info                              : Advanced Audio Codec
Format profile                           : LC
Codec ID                                 : 40
Duration                                 : 2h 1mn
Duration_LastFrame                       : -21ms
Bit rate mode                            : Variable
Bit rate                                 : 83.1 Kbps
Maximum bit rate                         : 128 Kbps
Channel(s)                               : 2 channels
Channel positions                        : Front: L R
Sampling rate                            : 24.0 KHz
Compression mode                         : Lossy
Stream size                              : 72.5 MiB (10%)






http://www25.zippyshare.com/v/86845202/file.html
http://www7.zippyshare.com/v/54093053/file.html
http://www43.zippyshare.com/v/24044166/file.html
[/size]
Nose Aceptan Devoluciones[BRSCR][Castellano][2013]
0 Puntos Score: 0/10
Visitas: 887 Favoritos: 0
4 Comentarios Nose Aceptan Devoluciones[BRSCR][Castellano][2013]
Muy buen aporte - Gracias x compartir
Oh castellano ?
Me pide la parte 4 para descomprimir y solo hay 3 links ?
Para dejar un comentario Registrate! o.. eres ya usuario? Accede!