Her [HDRip 720p][VOSE][2013]




En un futuro cercano, Theodore (Joaquin Phoenix), un escritor solitario, consigue un nuevo sistema operativo basado en el modelo de la Inteligencia Artificial y diseñado para satisfacer todas las necesidades del usuario. Para sorpresa de Theodore, se crea una relación romántica entre él y la voz femenina de este sistema operativo, a la que bautiza como Samantha (Scarlett Johansson).



Título: Her
Título original: Her
Dirección: Spike Jonze
País: Estados Unidos
Año: 2013
Fecha de estreno: 21/02/2014
Duración: 120 min
Género: Drama, Romance, Ciencia ficción
Reparto: Olivia Wilde, Amy Adams, Rooney Mara, Joaquín Phoenix, Scarlett Johansson, Chris Pratt, Portia Doubleday, Sam Jaeger, Spike Jonze, Bill Hader
Web: www.herthemovie.com
Distribuidora: Vertigo Films
Productora: Annapurna Pictures

General
Format                                   : MPEG-4
Format profile                           : Base Media / Version 2
Codec ID                                 : mp42
File size                                : 994 MiB
Duration                                 : 2h 5mn
Overall bit rate mode                    : Variable
Overall bit rate                         : 1 104 Kbps
Encoded date                             : UTC 2014-04-26 16:32:08
Tagged date                              : UTC 2014-04-26 16:59:45
Writing application                      : DVDFab

Video
ID                                       : 1
Format                                   : AVC
Format/Info                              : Advanced Video Codec
Format profile                           : [email protected]
Format settings, CABAC                   : Yes
Format settings, ReFrames                : 1 frame
Format settings, GOP                     : M=1, N=24
Codec ID                                 : avc1
Codec ID/Info                            : Advanced Video Coding
Duration                                 : 2h 5mn
Bit rate mode                            : Variable
Bit rate                                 : 972 Kbps
Width                                    : 1 280 pixels
Height                                   : 688 pixels
Display aspect ratio                     : 1.85:1
Frame rate mode                          : Variable
Frame rate                               : 23.976 fps
Minimum frame rate                       : 23.974 fps
Maximum frame rate                       : 23.981 fps
Color space                              : YUV
Chroma subsampling                       : 4:2:0
Bit depth                                : 8 bits
Scan type                                : Progressive
Bits/(Pixel*Frame)                       : 0.046
Stream size                              : 875 MiB (88%)
Writing library                          : x264 core
Encoded date                             : UTC 2014-04-26 16:32:08
Tagged date                              : UTC 2014-04-26 16:59:40
Color primaries                          : BT.709-5, BT.1361, IEC 61966-2-4, SMPTE RP177
Transfer characteristics                 : BT.709-5, BT.1361
Matrix coefficients                      : BT.709-5, BT.1361, IEC 61966-2-4 709, SMPTE RP177

Audio
ID                                       : 2
Format                                   : AAC
Format/Info                              : Advanced Audio Codec
Format profile                           : LC
Codec ID                                 : 40
Duration                                 : 2h 5mn
Bit rate mode                            : Variable
Bit rate                                 : 128 Kbps
Maximum bit rate                         : 212 Kbps
Channel(s)                               : 2 channels
Channel positions                        : Front: L R
Sampling rate                            : 48.0 KHz
Compression mode                         : Lossy
Stream size                              : 115 MiB (12%)
Language                                 : English
Encoded date                             : UTC 2014-04-26 16:32:08
Tagged date                              : UTC 2014-04-26 16:58:37






http://www49.zippyshare.com/v/59950742/file.html
http://www55.zippyshare.com/v/82917967/file.html
http://www54.zippyshare.com/v/73400286/file.html
http://www46.zippyshare.com/v/69779869/file.html
Her [HDRip 720p][VOSE][2013]
10 Puntos Score: 10/10
Visitas: 731 Favoritos: 4
Ver los usuarios que votaron...
0 Comentarios Her [HDRip 720p][VOSE][2013]
Este post no tiene comentarios. Sea el primero!
Para dejar un comentario Registrate! o.. eres ya usuario? Accede!