Fuerza Antigangster [HDRip][Castellano][2013]




Drogas, armas, prostitución, apuestas... Estamos en Los Ángeles, en el año 1949, cuando todos los negocios ilegales estaban controlados por el sanguinario Mickey Cohen (Sean Penn) y sus mafiosos. Tal es el poder de Cohen que hasta la policía de la ciudad le protege cuando lo necesita. Pero un grupo de adjuntos al departamento de policía se ha propuesto terminar con su imperior del terror; un grupo de hombres valientes encabezados por los sargentos John O'Mara (Josh Brolin) y Jerry Wooters (Ryan Gosling).



Título: Gangster Squad (Brigada de élite)
Título original: Gangster Squad
Dirección: Ruben Fleischer
País: Estados Unidos
Año: 2012
Fecha de estreno: 08/02/2013
Duración: 113 min
Género: Criminal, Drama
Calificación: No recomendada para menores de 16 años
Reparto: Emma Stone, Ryan Gosling, Giovanni Ribisi, Sean Penn, Josh Brolin, Anthony Mackie, Josh Pence, Nick Nolte, Mireille Enos, Robert Patrick
Web: www.gangstersquad.warnerbros.com
Distribuidora: Warner Bros. Pictures
Productora: Village Roadshow Pictures, Lin Pictures, Langley Park Productions

General
Format                                   : MPEG-4
Format profile                           : Base Media / Version 2
Codec ID                                 : mp42
File size                                : 796 MiB
Duration                                 : 1h 52mn
Overall bit rate mode                    : Variable
Overall bit rate                         : 986 Kbps
Encoded date                             : UTC 2013-05-13 01:54:40
Tagged date                              : UTC 2013-05-13 02:04:22
Writing application                      : HandBrake 0.9.8 2012071700

Video
ID                                       : 1
Format                                   : AVC
Format/Info                              : Advanced Video Codec
Format profile                           : [email protected]
Format settings, CABAC                   : Yes
Format settings, ReFrames                : 4 frames
Codec ID                                 : avc1
Codec ID/Info                            : Advanced Video Coding
Duration                                 : 1h 52mn
Bit rate mode                            : Variable
Bit rate                                 : 821 Kbps
Width                                    : 720 pixels
Height                                   : 304 pixels
Display aspect ratio                     : 2.35:1
Frame rate mode                          : Variable
Frame rate                               : 23.949 fps
Minimum frame rate                       : 0.959 fps
Maximum frame rate                       : 23.981 fps
Color space                              : YUV
Chroma subsampling                       : 4:2:0
Bit depth                                : 8 bits
Scan type                                : Progressive
Bits/(Pixel*Frame)                       : 0.157
Stream size                              : 663 MiB (83%)
Writing library                          : x264 core 120
Encoding settings                        : cabac=1 / ref=1 / deblock=1:0:0 / analyse=0x1:0x111 / me=hex / subme=2 / psy=1 / psy_rd=1.00:0.00 / mixed_ref=0 / me_range=16 / chroma_me=1 / trellis=0 / 8x8dct=0 / cqm=0 / deadzone=21,11 / fast_pskip=1 / chroma_qp_offset=0 / threads=12 / sliced_threads=0 / nr=0 / decimate=1 / interlaced=0 / bluray_compat=0 / constrained_intra=0 / bframes=3 / b_pyramid=2 / b_adapt=1 / b_bias=0 / direct=1 / weightb=1 / open_gop=0 / weightp=1 / keyint=240 / keyint_min=24 / scenecut=40 / intra_refresh=0 / rc_lookahead=10 / rc=crf / mbtree=1 / crf=20.0 / qcomp=0.60 / qpmin=3 / qpmax=69 / qpstep=4 / ip_ratio=1.40 / aq=1:1.00
Encoded date                             : UTC 2013-05-13 01:54:40
Tagged date                              : UTC 2013-05-13 02:04:19
Color primaries                          : BT.601-6 525, BT.1358 525, BT.1700 NTSC, SMPTE 170M
Transfer characteristics                 : BT.709-5, BT.1361
Matrix coefficients                      : BT.601-6 525, BT.1358 525, BT.1700 NTSC, SMPTE 170M

Audio
ID                                       : 2
Format                                   : AAC
Format/Info                              : Advanced Audio Codec
Format profile                           : LC
Codec ID                                 : 40
Duration                                 : 1h 52mn
Bit rate mode                            : Variable
Bit rate                                 : 160 Kbps
Maximum bit rate                         : 220 Kbps
Channel(s)                               : 2 channels
Channel positions                        : Front: L R
Sampling rate                            : 48.0 KHz
Compression mode                         : Lossy
Stream size                              : 129 MiB (16%)
Encoded date                             : UTC 2013-05-13 01:54:40
Tagged date                              : UTC 2013-05-13 02:04:18






http://www12.zippyshare.com/v/70231001/file.html
http://www27.zippyshare.com/v/56452804/file.html
http://www21.zippyshare.com/v/93230148/file.html
http://www33.zippyshare.com/v/37485429/file.html
[/size]
Fuerza Antigangster [HDRip][Castellano][2013]
0 Puntos Score: 0/10
Visitas: 599 Favoritos: 1
0 Comentarios Fuerza Antigangster [HDRip][Castellano][2013]
Este post no tiene comentarios. Sea el primero!
Para dejar un comentario Registrate! o.. eres ya usuario? Accede!