Fuerza Antigangster [HDRip 720p][Latino][2013]




Drogas, armas, prostitución, apuestas... Estamos en Los Ángeles, en el año 1949, cuando todos los negocios ilegales estaban controlados por el sanguinario Mickey Cohen (Sean Penn) y sus mafiosos. Tal es el poder de Cohen que hasta la policía de la ciudad le protege cuando lo necesita. Pero un grupo de adjuntos al departamento de policía se ha propuesto terminar con su imperior del terror; un grupo de hombres valientes encabezados por los sargentos John O'Mara (Josh Brolin) y Jerry Wooters (Ryan Gosling).



Título: Gangster Squad (Brigada de élite)
Título original: Gangster Squad
Dirección: Ruben Fleischer
País: Estados Unidos
Año: 2012
Fecha de estreno: 08/02/2013
Duración: 113 min
Género: Criminal, Drama
Calificación: No recomendada para menores de 16 años
Reparto: Emma Stone, Ryan Gosling, Giovanni Ribisi, Sean Penn, Josh Brolin, Anthony Mackie, Josh Pence, Nick Nolte, Mireille Enos, Robert Patrick
Web: www.gangstersquad.warnerbros.com
Distribuidora: Warner Bros. Pictures
Productora: Village Roadshow Pictures, Lin Pictures, Langley Park Productions

General
Format                                   : Matroska
Format version                           : Version 2
File size                                : 1 008 MiB
Duration                                 : 1h 52mn
Overall bit rate                         : 1 248 Kbps
Encoded date                             : UTC 2013-04-08 23:42:06
Writing application                      : mkvmerge v3.4.0 ('Rapunzel') built on May 15 2010 09:38:20
Writing library                          : libebml v0.8.0 + libmatroska v0.9.0

Video
ID                                       : 1
Format                                   : AVC
Format/Info                              : Advanced Video Codec
Format profile                           : [email protected]
Format settings, CABAC                   : Yes
Format settings, ReFrames                : 4 frames
Codec ID                                 : V_MPEG4/ISO/AVC
Duration                                 : 1h 52mn
Bit rate                                 : 863 Kbps
Width                                    : 1 280 pixels
Height                                   : 528 pixels
Display aspect ratio                     : 2.40:1
Frame rate                               : 23.976 fps
Color space                              : YUV
Chroma subsampling                       : 4:2:0
Bit depth                                : 8 bits
Scan type                                : Progressive
Bits/(Pixel*Frame)                       : 0.053
Stream size                              : 678 MiB (67%)
Title                                    : WwW.DD-Peliculas.COM
Writing library                          : x264 core 98 r1649 20cbe10
Encoding settings                        : cabac=1 / ref=3 / deblock=1:0:0 / analyse=0x3:0x113 / me=hex / subme=7 / psy=1 / psy_rd=1.00:0.00 / mixed_ref=1 / me_range=16 / chroma_me=1 / trellis=1 / 8x8dct=1 / cqm=0 / deadzone=21,11 / fast_pskip=1 / chroma_qp_offset=-2 / threads=24 / sliced_threads=0 / nr=0 / decimate=1 / interlaced=0 / constrained_intra=0 / bframes=3 / b_pyramid=2 / b_adapt=1 / b_bias=0 / direct=1 / weightb=1 / weightp=2 / keyint=250 / keyint_min=25 / scenecut=40 / intra_refresh=0 / rc_lookahead=40 / rc=2pass / mbtree=1 / bitrate=863 / ratetol=1.0 / qcomp=0.60 / qpmin=10 / qpmax=51 / qpstep=4 / cplxblur=20.0 / qblur=0.5 / ip_ratio=1.40 / aq=1:1.00
Language                                 : Spanish
Default                                  : No
Forced                                   : No

Audio
ID                                       : 2
Format                                   : AC-3
Format/Info                              : Audio Coding 3
Mode extension                           : CM (complete main)
Format settings, Endianness              : Big
Codec ID                                 : A_AC3
Duration                                 : 1h 52mn
Bit rate mode                            : Constant
Bit rate                                 : 384 Kbps
Channel(s)                               : 6 channels
Channel positions                        : Front: L C R, Side: L R, LFE
Sampling rate                            : 48.0 KHz
Bit depth                                : 16 bits
Compression mode                         : Lossy
Stream size                              : 310 MiB (31%)
Language                                 : Spanish
Default                                  : Yes
Forced                                   : No

Text
ID                                       : 3
Format                                   : UTF-8
Codec ID                                 : S_TEXT/UTF8
Codec ID/Info                            : UTF-8 Plain Text
Language                                 : Spanish
Default                                  : Yes
Forced                                   : No






http://www7.zippyshare.com/v/93540010/file.html
http://www44.zippyshare.com/v/81335167/file.html
http://www36.zippyshare.com/v/24983943/file.html
http://www28.zippyshare.com/v/81341014/file.html
http://www5.zippyshare.com/v/71504459/file.html
http://www24.zippyshare.com/v/85524956/file.html
[/size]
Fuerza Antigangster [HDRip 720p][Latino][2013]
0 Puntos Score: 0/10
Visitas: 1684 Favoritos: 0
2 Comentarios Fuerza Antigangster [HDRip 720p][Latino][2013]
Para dejar un comentario Registrate! o.. eres ya usuario? Accede!