Aprendiz Gigolo [TSHQ][Castellano][2014]




Fioravante (John Turturro) haría lo que fuera por su amigo Murray (Woody Allen). Por eso, cuando éste se queda sin blanca, Fioravante decide ganar un dinerillo extra como gigoló. Murray será su manager. Una idea tan disparatada como esta comedia escrita y dirigida por el propio John Turturro en la que también aparecen otros rostros conocidos como Sofia Vergara, Sharon Stone, Liev Schreiber o Vanessa Paradis.



Título: Aprendiz de gigoló
Título original: Fading Gigolo
Dirección: John Turturro
País: Estados Unidos
Año: 2014
Fecha de estreno: 30/04/2014
Duración: 98 min
Género: Comedia
Reparto: Liev Schreiber, Sofía Vergara, Sharon Stone, Woody Allen, John Turturro, Vanessa Paradis, Max Casella, Aida Turturro, Bob Balaban
Distribuidora: DeA Planeta Home Entertainment
Productora: Antidote Films (I)

General
Format                                   : AVI
Format/Info                              : Audio Video Interleave
File size                                : 1 019 MiB
Duration                                 : 1h 25mn
Overall bit rate                         : 1 674 Kbps
Movie name                               : Fading Gigolo SCR VO
Writing application                      : VirtualDubMod 1.5.10.2 (build 2540/release)
Writing library                          : VirtualDubMod build 2540/release

Video
ID                                       : 0
Format                                   : MPEG-4 Visual
Format profile                           : Advanced [email protected]
Format settings, BVOP                    : 2
Format settings, QPel                    : No
Format settings, GMC                     : No warppoints
Format settings, Matrix                  : Default (H.263)
Muxing mode                              : Packed bitstream
Codec ID                                 : XVID
Codec ID/Hint                            : XviD
Duration                                 : 1h 25mn
Bit rate                                 : 1 472 Kbps
Width                                    : 720 pixels
Height                                   : 372 pixels
Display aspect ratio                     : 1.935
Frame rate                               : 25.000 fps
Color space                              : YUV
Chroma subsampling                       : 4:2:0
Bit depth                                : 8 bits
Scan type                                : Progressive
Compression mode                         : Lossy
Bits/(Pixel*Frame)                       : 0.220
Stream size                              : 896 MiB (88%)
Writing library                          : XviD 64

Audio
ID                                       : 1
Format                                   : MPEG Audio
Format version                           : Version 1
Format profile                           : Layer 3
Codec ID                                 : 55
Codec ID/Hint                            : MP3
Duration                                 : 1h 25mn
Bit rate mode                            : Constant
Bit rate                                 : 192 Kbps
Channel(s)                               : 2 channels
Sampling rate                            : 44.1 KHz
Compression mode                         : Lossy
Stream size                              : 117 MiB (11%)
Alignment                                : Split accross interleaves
Interleave, duration                     : 40 ms (1.00 video frame)
Interleave, preload duration             : 500 ms






http://www41.zippyshare.com/v/56894791/file.html
http://www22.zippyshare.com/v/20279641/file.html
http://www66.zippyshare.com/v/24570170/file.html
http://www37.zippyshare.com/v/80020894/file.html
http://www61.zippyshare.com/v/13594044/file.html
http://www21.zippyshare.com/v/38063679/file.html
[/size]
Aprendiz Gigolo [TSHQ][Castellano][2014]
0 Puntos Score: 0/10
Visitas: 1589 Favoritos: 1
1 Comentarios Aprendiz Gigolo [TSHQ][Castellano][2014]
Para dejar un comentario Registrate! o.. eres ya usuario? Accede!