Tarzan [HDRip 720p][VOSE][2013]




Tarzán (con la voz de Kellan Lutz en la versión original) y Jane Porter (Spencer Locke) deben enfrentarse a un ejército de mercenarios contratados por el CEO de Greystoke Energies, el hombre que se hizo con el control de la empresa de los padres de Tarzán cuando estos murieron en un accidente de avión. El nuevo objetivo de este enemigo es destrozar parte del bosque en el que vive Tarzán para embolsarse unas ganancias multimillonarias. Y no le importará acabar con la vida de miles de animalitos y plantas, muchos de ellos en peligro de extinción.



Título: Tarzán: La leyenda cobra vida
Título original: Tarzan
Dirección: Reinhard Klooss
País: Alemania
Año: 2013
Fecha de estreno: 20/06/2014
Duración: -
Género: Animación, Aventuras, Acción
Calificación: Apta para todos los públicos
Reparto: Kellan Lutz, Robert Capron, Jaime Ray Newman, Spencer Locke, Brian Bloom, Mark Deklin, Brian Huskey
Distribuidora: eOne Films
Productora: Constantin Film Produktion, Ambient Entertainment GmbH

General
Format                                   : MPEG-4
Format profile                           : Base Media / Version 2
Codec ID                                 : mp42
File size                                : 956 MiB
Duration                                 : 1h 34mn
Overall bit rate mode                    : Variable
Overall bit rate                         : 1 419 Kbps
Encoded date                             : UTC 2014-04-25 18:58:06
Tagged date                              : UTC 2014-04-25 19:18:17
Writing application                      : DVDFab

Video
ID                                       : 1
Format                                   : AVC
Format/Info                              : Advanced Video Codec
Format profile                           : [email protected]
Format settings, CABAC                   : Yes
Format settings, ReFrames                : 1 frame
Format settings, GOP                     : M=1, N=24
Codec ID                                 : avc1
Codec ID/Info                            : Advanced Video Coding
Duration                                 : 1h 34mn
Bit rate mode                            : Variable
Bit rate                                 : 1 286 Kbps
Width                                    : 1 280 pixels
Height                                   : 538 pixels
Display aspect ratio                     : 2.40:1
Frame rate mode                          : Variable
Frame rate                               : 23.976 fps
Minimum frame rate                       : 23.974 fps
Maximum frame rate                       : 23.981 fps
Color space                              : YUV
Chroma subsampling                       : 4:2:0
Bit depth                                : 8 bits
Scan type                                : Progressive
Bits/(Pixel*Frame)                       : 0.078
Stream size                              : 867 MiB (91%)
Writing library                          : x264 core
Encoded date                             : UTC 2014-04-25 18:58:06
Tagged date                              : UTC 2014-04-25 19:18:13
Color primaries                          : BT.709-5, BT.1361, IEC 61966-2-4, SMPTE RP177
Transfer characteristics                 : BT.709-5, BT.1361
Matrix coefficients                      : BT.709-5, BT.1361, IEC 61966-2-4 709, SMPTE RP177

Audio
ID                                       : 2
Format                                   : AAC
Format/Info                              : Advanced Audio Codec
Format profile                           : LC
Codec ID                                 : 40
Duration                                 : 1h 34mn
Bit rate mode                            : Variable
Bit rate                                 : 128 Kbps
Maximum bit rate                         : 210 Kbps
Channel(s)                               : 2 channels
Channel positions                        : Front: L R
Sampling rate                            : 48.0 KHz
Compression mode                         : Lossy
Stream size                              : 86.2 MiB (9%)
Language                                 : Russian
Encoded date                             : UTC 2014-04-25 18:58:06
Tagged date                              : UTC 2014-04-25 19:17:10






http://www58.zippyshare.com/v/44184896/file.html
http://www15.zippyshare.com/v/9678981/file.html
http://www24.zippyshare.com/v/40795697/file.html
http://www51.zippyshare.com/v/36819673/file.html
http://www43.zippyshare.com/v/19172782/file.html
Tarzan [HDRip 720p][VOSE][2013]
5 Puntos Score: 5/10
Visitas: 3423 Favoritos: 2
Ver los usuarios que votaron...
15 Comentarios Tarzan [HDRip 720p][VOSE][2013]
gracias!
lo tenes en un link?
Muy bien espero que el audio sea el bueno, gracias por compartir  
alguien ya la descargo?? ya q dice q esta en ruso y est sub y q es latino??
Cita Draco2010: Mostrar
imagen equivocada con la de subtitulos... la pelicula es en latino
anda garca hijo de puta mentiroso esta en audio ruso y subtitulado
no descargen el audio es ruso y est sub probado........
No se molesten es la misma de los demas post, audio ruso  
Sip yo tambien la descargue y el audio esta en ruso  
grACIAS POR AVISAR MUCHACHOS...... CONFIRMAR  CUANDO ESTE EN ESPA?
Cita 3dgeminis: Mostrar

Cita diegote023: Mostrar

Cita Andres_DK: Mostrar
Pido disculpas si te ofendi de alguna manera, todos savemos el esfuerzo de subir aportes a esta pagina  
Cita 3dgeminis: Mostrar
aceptada... igual disfruta de mis aportes
Amigo... no es una critica, es mas bien un deseo... sera posible que mas all?
Amigooo links Caidos hhehehee
Para dejar un comentario Registrate! o.. eres ya usuario? Accede!