RoboCop [HDRip 720p][VOSE][2014]




Este remake de 'RoboCop' se sitúa en la Detroit del año 2028, que está controlada por la multinacional robótica OmniCorp. Los drones que se fabrican allí se utilizan por el ejército, lo que reporta millones de dólares a la empresa. Ahora, OmniCorp tiene la ocasión de utilizar esta polémica tecnología para una buena causa: convertir en un robot a un hombre que quedó amputado y desfigurado después de un brutal asalto (Joel Kinnaman). Pero cuando OmniCorp decide sacar rédito de su invento, el héroe tomará su propio camino y perseguirá el objetivo de hacer justicia con sus propios métodos.



Título: RoboCop
Título original: RoboCop
Dirección: José Padilha
País: Estados Unidos
Año: 2014
Fecha de estreno: 14/02/2014
Duración: 118 min
Género: Acción, Ciencia ficción
Calificación: No recomendada para menores de 12 años
Reparto: Joel Kinnaman, Gary Oldman, Michael Keaton, Samuel L. Jackson, Jay Baruchel, Abbie Cornish, Jackie Earle Haley, Jennifer Ehle, Marianne Jean-Baptiste
Web: RoboCop | Official Movie Site | Sony Pictures
Distribuidora: Sony Pictures
Productora: Metro-Goldwyn-Mayer (MGM), Columbia Pictures, Strike Entertainment

General
Format                                   : MPEG-4
Format profile                           : Base Media / Version 2
Codec ID                                 : mp42
File size                                : 989 MiB
Duration                                 : 1h 57mn
Overall bit rate mode                    : Variable
Overall bit rate                         : 1 177 Kbps
Encoded date                             : UTC 2014-04-29 00:52:09
Tagged date                              : UTC 2014-04-29 01:12:45
Writing application                      : DVDFab

Video
ID                                       : 1
Format                                   : AVC
Format/Info                              : Advanced Video Codec
Format profile                           : [email protected]
Format settings, CABAC                   : Yes
Format settings, ReFrames                : 1 frame
Codec ID                                 : avc1
Codec ID/Info                            : Advanced Video Coding
Duration                                 : 1h 57mn
Bit rate mode                            : Variable
Bit rate                                 : 1 046 Kbps
Width                                    : 1 280 pixels
Height                                   : 534 pixels
Display aspect ratio                     : 2.40:1
Frame rate mode                          : Constant
Frame rate                               : 24.000 fps
Color space                              : YUV
Chroma subsampling                       : 4:2:0
Bit depth                                : 8 bits
Scan type                                : Progressive
Bits/(Pixel*Frame)                       : 0.064
Stream size                              : 879 MiB (89%)
Writing library                          : x264 core
Encoded date                             : UTC 2014-04-29 00:52:09
Tagged date                              : UTC 2014-04-29 01:12:41
Color primaries                          : BT.709-5, BT.1361, IEC 61966-2-4, SMPTE RP177
Transfer characteristics                 : BT.709-5, BT.1361
Matrix coefficients                      : BT.709-5, BT.1361, IEC 61966-2-4 709, SMPTE RP177

Audio
ID                                       : 2
Format                                   : AAC
Format/Info                              : Advanced Audio Codec
Format profile                           : LC
Codec ID                                 : 40
Duration                                 : 1h 57mn
Bit rate mode                            : Variable
Bit rate                                 : 128 Kbps
Maximum bit rate                         : 161 Kbps
Channel(s)                               : 2 channels
Channel positions                        : Front: L R
Sampling rate                            : 48.0 KHz
Compression mode                         : Lossy
Stream size                              : 108 MiB (11%)
Encoded date                             : UTC 2014-04-29 00:52:09
Tagged date                              : UTC 2014-04-29 01:12:44






http://www77.zippyshare.com/v/55544099/file.html
http://www50.zippyshare.com/v/78531031/file.html
http://www26.zippyshare.com/v/46468483/file.html
http://www16.zippyshare.com/v/55202349/file.html
http://www16.zippyshare.com/v/16561832/file.html
RoboCop [HDRip 720p][VOSE][2014]
0 Puntos Score: 0/10
Visitas: 3073 Favoritos: 1
3 Comentarios RoboCop [HDRip 720p][VOSE][2014]
Fenomeno, a descargar. Muchas gracias.  
Yo no la descargare pero se agradece tu aporte.
Para dejar un comentario Registrate! o.. eres ya usuario? Accede!