On The Road [DVDRip][VOSE][2012]




Adaptación de la mítica obra literaria de Jack Kerouac, un auténtico referente para los seguidores de la generación 'beat'. Sus protagonistas son Dean Moriarty y Sal Paradise (Garrett Hedlund y Sam Riley), dos jóvenes que recorren los Estados Unidos de norte a sur y de este a oeste a bordo de un viejo automóvil, sin rumbo fijo ni objetivos marcados. Una verdadera montaña rusa emocional en la que también se implicará la hermosa Marylou (Kristen Stewart).



Título: On the Road
Título original: On the Road
Dirección: Walter Salles
País: Francia, El Reino Unido, Estados Unidos
Año: 2012
Fecha de estreno: 19/04/2013
Duración: 124 min
Género: Drama, Aventuras
Reparto: Sam Riley, Garrett Hedlund, Kristen Stewart, Kirsten Dunst, Tom Sturridge, Viggo Mortensen, Amy Adams, Alice Braga, Steve Buscemi, Danny Morgan
Guión: Jose Rivera
Web: www.themadones.us
Distribuidora: Wanda Visión S.A
Productora: MK2 Productions, VideoFilmes, Film4, SPAD Films, Nomadic Pictures

General
Format                                   : MPEG-4
Format profile                           : Base Media / Version 2
Codec ID                                 : mp42
File size                                : 859 MiB
Duration                                 : 2h 14mn
Overall bit rate mode                    : Variable
Overall bit rate                         : 896 Kbps
Encoded date                             : UTC 2013-04-20 23:16:33
Tagged date                              : UTC 2013-04-20 23:16:33

Video
ID                                       : 201
Format                                   : MPEG-4 Visual
Format profile                           : [email protected]
Format settings, BVOP                    : No
Format settings, QPel                    : No
Format settings, GMC                     : No warppoints
Format settings, Matrix                  : Default (H.263)
Codec ID                                 : 20
Duration                                 : 2h 14mn
Bit rate mode                            : Variable
Bit rate                                 : 767 Kbps
Maximum bit rate                         : 11.2 Mbps
Width                                    : 624 pixels
Height                                   : 256 pixels
Display aspect ratio                     : 2.40:1
Frame rate mode                          : Constant
Frame rate                               : 25.000 fps
Color space                              : YUV
Chroma subsampling                       : 4:2:0
Bit depth                                : 8 bits
Scan type                                : Progressive
Compression mode                         : Lossy
Bits/(Pixel*Frame)                       : 0.192
Stream size                              : 736 MiB (86%)
Writing library                          : Lavc53.8.0
Encoded date                             : UTC 2013-04-20 23:16:33
Tagged date                              : UTC 2013-04-20 23:16:45

Audio
ID                                       : 101
Format                                   : AAC
Format/Info                              : Advanced Audio Codec
Format profile                           : LC
Codec ID                                 : 40
Duration                                 : 2h 14mn
Bit rate mode                            : Variable
Bit rate                                 : 126 Kbps
Maximum bit rate                         : 184 Kbps
Channel(s)                               : 2 channels
Channel positions                        : Front: L R
Sampling rate                            : 44.1 KHz
Compression mode                         : Lossy
Stream size                              : 120 MiB (14%)
Encoded date                             : UTC 2013-04-20 23:16:41
Tagged date                              : UTC 2013-04-20 23:16:45






http://www38.zippyshare.com/v/74496463/file.html
http://www21.zippyshare.com/v/12975934/file.html
http://www44.zippyshare.com/v/63686705/file.html
http://www32.zippyshare.com/v/23378202/file.html
http://www16.zippyshare.com/v/61530163/file.html
On The Road [DVDRip][VOSE][2012]
0 Puntos Score: 0/10
Visitas: 972 Favoritos: 0
1 Comentarios On The Road [DVDRip][VOSE][2012]
Gracias esta se me paso verla.
Para dejar un comentario Registrate! o.. eres ya usuario? Accede!