On The Road [HDRip 720p][VOSE][2012]




Adaptación de la mítica obra literaria de Jack Kerouac, un auténtico referente para los seguidores de la generación 'beat'. Sus protagonistas son Dean Moriarty y Sal Paradise (Garrett Hedlund y Sam Riley), dos jóvenes que recorren los Estados Unidos de norte a sur y de este a oeste a bordo de un viejo automóvil, sin rumbo fijo ni objetivos marcados. Una verdadera montaña rusa emocional en la que también se implicará la hermosa Marylou (Kristen Stewart).



Título: On the Road
Título original: On the Road
Dirección: Walter Salles
País: Francia, El Reino Unido, Estados Unidos
Año: 2012
Fecha de estreno: 19/04/2013
Duración: 124 min
Género: Drama, Aventuras
Reparto: Sam Riley, Garrett Hedlund, Kristen Stewart, Kirsten Dunst, Tom Sturridge, Viggo Mortensen, Amy Adams, Alice Braga, Steve Buscemi, Danny Morgan
Guión: Jose Rivera
Web: www.themadones.us
Distribuidora: Wanda Visión S.A
Productora: MK2 Productions, VideoFilmes, Film4, SPAD Films, Nomadic Pictures

General
Format                                   : AVI
Format/Info                              : Audio Video Interleave
Format profile                           : OpenDML
File size                                : 1.76 GiB
Duration                                 : 2h 3mn
Overall bit rate                         : 2 042 Kbps
Writing application                      : Lavf52.84.0

Video
ID                                       : 0
Format                                   : MPEG-4 Visual
Codec ID                                 : FMP4
Duration                                 : 2h 3mn
Bit rate                                 : 1 900 Kbps
Width                                    : 1 280 pixels
Height                                   : 720 pixels
Display aspect ratio                     : 16:9
Frame rate                               : 29.970 fps
Color space                              : YUV
Chroma subsampling                       : 4:2:0
Compression mode                         : Lossy
Bits/(Pixel*Frame)                       : 0.069
Stream size                              : 1.64 GiB (93%)

Audio
ID                                       : 1
Format                                   : MPEG Audio
Format version                           : Version 1
Format profile                           : Layer 3
Mode                                     : Joint stereo
Mode extension                           : MS Stereo
Codec ID                                 : 55
Codec ID/Hint                            : MP3
Duration                                 : 2h 3mn
Bit rate mode                            : Constant
Bit rate                                 : 128 Kbps
Channel(s)                               : 2 channels
Sampling rate                            : 48.0 KHz
Compression mode                         : Lossy
Stream size                              : 113 MiB (6%)
Alignment                                : Aligned on interleaves
Interleave, duration                     : 24 ms (0.72 video frame)
Writing library                          : LAME3.98.4






http://www18.zippyshare.com/v/50083665/file.html
http://www54.zippyshare.com/v/80866444/file.html
http://www34.zippyshare.com/v/74516584/file.html
http://www66.zippyshare.com/v/18826630/file.html
http://www21.zippyshare.com/v/88056211/file.html
http://www31.zippyshare.com/v/83962861/file.html
http://www34.zippyshare.com/v/50494317/file.html
http://www64.zippyshare.com/v/49503948/file.html
http://www30.zippyshare.com/v/67992895/file.html
http://www18.zippyshare.com/v/25162053/file.html
On The Road [HDRip 720p][VOSE][2012]
10 Puntos Score: 10/10
Visitas: 1033 Favoritos: 1
Ver los usuarios que votaron...
0 Comentarios On The Road [HDRip 720p][VOSE][2012]
Este post no tiene comentarios. Sea el primero!
Para dejar un comentario Registrate! o.. eres ya usuario? Accede!