La Fortaleza [CAM][Castellano][2014]




En un Detroit distópico, los antiguos bloques de ladrillo ahora dan cobijo a algunos de los delincuentes más peligrosos de la ciudad. En un intento desesperado por proteger el resto de la ciudad, la policía construye, alrededor de esos edificios, un muro de contención. Mientras el agente secreto Damien Collier (Paul Walker) libra, día tras día, una dura batalla contra la corrupción, Lino (David Belle), un ex convicto lucha por llevar una vida honesta.
Sus caminos nunca deberían haberse cruzado, pero cuando el capo de la droga, Tremaine (RZA) secuestra a la novia de Lino, Damien se ve obligado a aceptar su ayuda para intentar detener una siniestra trama que pretende acabar con toda la ciudad.



Título: Brick Mansions (La fortaleza)
Título original: Brick Mansions
Dirección: Camille Delamarre
País: Francia, Canadá
Año: 2014
Fecha de estreno: 25/04/2014
Duración: 90 min
Género: Criminal, Drama, Acción
Reparto: Paul Walker, David Belle, RZA, Robert Maillet, Carlo Rota, Bruce Ramsay, Catalina Denis, Ayisha Issa
Distribuidora: Avalon Productions
Productora: EuropaCorp

General
Format                                   : MPEG-4
Format profile                           : Base Media
Codec ID                                 : isom
File size                                : 507 MiB
Duration                                 : 1h 24mn
Overall bit rate mode                    : Variable
Overall bit rate                         : 835 Kbps
Writing application                      : Lavf54.63.104

Video
ID                                       : 1
Format                                   : AVC
Format/Info                              : Advanced Video Codec
Format profile                           : [email protected]
Format settings, CABAC                   : Yes
Format settings, ReFrames                : 4 frames
Codec ID                                 : avc1
Codec ID/Info                            : Advanced Video Coding
Duration                                 : 1h 24mn
Bit rate                                 : 750 Kbps
Width                                    : 720 pixels
Height                                   : 304 pixels
Display aspect ratio                     : 2.35:1
Original display aspect ratio            : 2.35:1
Frame rate mode                          : Constant
Frame rate                               : 29.970 fps
Color space                              : YUV
Chroma subsampling                       : 4:2:0
Bit depth                                : 8 bits
Scan type                                : Progressive
Bits/(Pixel*Frame)                       : 0.114
Stream size                              : 453 MiB (89%)
Writing library                          : x264 core 120 r2151 a3f4407
Encoding settings                        : cabac=1 / ref=3 / deblock=1:0:0 / analyse=0x3:0x113 / me=hex / subme=7 / psy=1 / psy_rd=1.00:0.00 / mixed_ref=1 / me_range=16 / chroma_me=1 / trellis=1 / 8x8dct=1 / cqm=0 / deadzone=21,11 / fast_pskip=1 / chroma_qp_offset=-2 / threads=16 / sliced_threads=0 / nr=0 / decimate=1 / interlaced=0 / bluray_compat=0 / constrained_intra=0 / bframes=3 / b_pyramid=2 / b_adapt=1 / b_bias=0 / direct=1 / weightb=1 / open_gop=0 / weightp=2 / keyint=25 / keyint_min=2 / scenecut=40 / intra_refresh=0 / rc_lookahead=25 / rc=abr / mbtree=1 / bitrate=750 / ratetol=1.0 / qcomp=0.60 / qpmin=0 / qpmax=69 / qpstep=4 / ip_ratio=1.40 / aq=1:1.00

Audio
ID                                       : 2
Format                                   : AAC
Format/Info                              : Advanced Audio Codec
Format profile                           : LC
Codec ID                                 : 40
Duration                                 : 1h 24mn
Duration_LastFrame                       : -11ms
Bit rate mode                            : Variable
Bit rate                                 : 82.7 Kbps
Maximum bit rate                         : 128 Kbps
Channel(s)                               : 2 channels
Channel positions                        : Front: L R
Sampling rate                            : 24.0 KHz
Compression mode                         : Lossy
Stream size                              : 50.2 MiB (10%)






http://www17.zippyshare.com/v/85747434/file.html
http://www12.zippyshare.com/v/57167579/file.html
http://www27.zippyshare.com/v/5631712/file.html
La Fortaleza [CAM][Castellano][2014]
0 Puntos Score: 0/10
Visitas: 837 Favoritos: 0
3 Comentarios La Fortaleza [CAM][Castellano][2014]
q no ya se murio Paul Walker, como hizo esta pelicula??
Cita kkamuss: Mostrar
esta fue la ultima pelicula que realizo antes de su muerte "termino" ya que la de rapido y furioso 7 no pudo terminarla
amigo ke tal escucha esta version porke descarge otra y se escucha super bajo
Para dejar un comentario Registrate! o.. eres ya usuario? Accede!