Lego La Pelicula [TSHQ][Latino][2014]




Película basada en los clásicos juguetes LEGO. Emmet (Chris Pratt), el protagonista de la película, trabaja como constructor en la ciudad Lego, pero sus conocimientos no van más allá de colocar las fichas atendiendo las instrucciones de edificación. Sin embargo, sin saber cómo ni por qué, Emmet es confundido con un 'Master Builder' e introducido como cabecilla de una misión que tiene por objetivo evitar que un malvado acabe con la ciudad de bloques. Por suerte, los habitantes de tan atípico lugar no están solos. Los mismísimos Superman y Batman han tomado la forma de muñecos Lego para formar parte de esta gran aventura.



Título: Lego: la película
Título original: The LEGO Movie
Dirección: Phil Lord, Chris Miller
País: Estados Unidos
Año: 2014
Fecha de estreno: 07/02/2014
Duración: 90 min
Género: Comedia, Animación, Acción
Calificación: Apta para todos los públicos
Reparto: Elizabeth Banks, Channing Tatum, Morgan Freeman, Chris Pratt, Will Arnett, Jonah Hill, Will Ferrell, Cobie Smulders, Liam Neeson, Alison Brie
Web: www.warnerbros.es/cine/animacion/la-lego-pelicula
Distribuidora: Warner Bros. Pictures
Productora: Animal Logic, LEGO

General
Format                                   : AVI
Format/Info                              : Audio Video Interleave
File size                                : 901 MiB
Duration                                 : 1h 33mn
Overall bit rate                         : 1 354 Kbps
Writing application                      : Lavf52.84.0

Video
ID                                       : 0
Format                                   : MPEG-4 Visual
Format profile                           : [email protected]
Format settings, BVOP                    : No
Format settings, QPel                    : No
Format settings, GMC                     : No warppoints
Format settings, Matrix                  : Default (H.263)
Codec ID                                 : XVID
Codec ID/Hint                            : XviD
Duration                                 : 1h 33mn
Bit rate                                 : 1 215 Kbps
Width                                    : 768 pixels
Height                                   : 576 pixels
Display aspect ratio                     : 4:3
Frame rate                               : 29.970 fps
Color space                              : YUV
Chroma subsampling                       : 4:2:0
Bit depth                                : 8 bits
Scan type                                : Progressive
Compression mode                         : Lossy
Bits/(Pixel*Frame)                       : 0.092
Stream size                              : 809 MiB (90%)
Writing library                          : Lavc52.97.0

Audio
ID                                       : 1
Format                                   : MPEG Audio
Format version                           : Version 1
Format profile                           : Layer 3
Codec ID                                 : 55
Codec ID/Hint                            : MP3
Duration                                 : 1h 33mn
Bit rate mode                            : Constant
Bit rate                                 : 128 Kbps
Channel(s)                               : 1 channel
Sampling rate                            : 32.0 KHz
Compression mode                         : Lossy
Stream size                              : 85.2 MiB (9%)
Alignment                                : Aligned on interleaves
Interleave, duration                     : 36 ms (1.08 video frame)
Interleave, preload duration             : 36 ms
Writing library                          : LAME3.98.2






http://www56.zippyshare.com/v/26774214/file.html
http://www47.zippyshare.com/v/51142401/file.html
http://www73.zippyshare.com/v/87722100/file.html
http://www53.zippyshare.com/v/72987578/file.html
http://www72.zippyshare.com/v/44949281/file.html
Lego La Pelicula [TSHQ][Latino][2014]
10 Puntos Score: 10/10
Visitas: 2743 Favoritos: 1
Ver los usuarios que votaron...
5 Comentarios Lego La Pelicula [TSHQ][Latino][2014]
hey bro! sabes para cuando estar?
Cita darkgambit: Mostrar
como el culo la imagen!!!!!!
Hola, me dices cual es el Password ? por favor ?
Gracias !!! espero tu respuesta
Cita Alfagamma: Mostrar
no tiene pass de nada
Para dejar un comentario Registrate! o.. eres ya usuario? Accede!