Lego La Pelicula [DVDSCR][Castellano][2014]




Película basada en los clásicos juguetes LEGO. Emmet (Chris Pratt), el protagonista de la película, trabaja como constructor en la ciudad Lego, pero sus conocimientos no van más allá de colocar las fichas atendiendo las instrucciones de edificación. Sin embargo, sin saber cómo ni por qué, Emmet es confundido con un 'Master Builder' e introducido como cabecilla de una misión que tiene por objetivo evitar que un malvado acabe con la ciudad de bloques. Por suerte, los habitantes de tan atípico lugar no están solos. Los mismísimos Superman y Batman han tomado la forma de muñecos Lego para formar parte de esta gran aventura.



Título: Lego: la película
Título original: The LEGO Movie
Dirección: Phil Lord, Chris Miller
País: Estados Unidos
Año: 2014
Fecha de estreno: 07/02/2014
Duración: 90 min
Género: Comedia, Animación, Acción
Calificación: Apta para todos los públicos
Reparto: Elizabeth Banks, Channing Tatum, Morgan Freeman, Chris Pratt, Will Arnett, Jonah Hill, Will Ferrell, Cobie Smulders, Liam Neeson, Alison Brie
Web: www.warnerbros.es/cine/animacion/la-lego-pelicula
Distribuidora: Warner Bros. Pictures
Productora: Animal Logic, LEGO

General
Format                                   : AVI
Format/Info                              : Audio Video Interleave
File size                                : 1.37 GiB
Duration                                 : 1h 40mn
Overall bit rate                         : 1 958 Kbps
Writing application                      : VirtualDubMod 1.5.10.2 (build 2542/release)
Writing library                          : VirtualDubMod build 2542/release

Video
ID                                       : 0
Format                                   : MPEG-4 Visual
Format profile                           : [email protected]
Format settings, BVOP                    : No
Format settings, QPel                    : No
Format settings, GMC                     : No warppoints
Format settings, Matrix                  : Default (H.263)
Codec ID                                 : XVID
Codec ID/Hint                            : XviD
Duration                                 : 1h 40mn
Bit rate                                 : 1 755 Kbps
Width                                    : 720 pixels
Height                                   : 320 pixels
Display aspect ratio                     : 2.25:1
Frame rate                               : 29.970 fps
Color space                              : YUV
Chroma subsampling                       : 4:2:0
Bit depth                                : 8 bits
Scan type                                : Progressive
Compression mode                         : Lossy
Bits/(Pixel*Frame)                       : 0.254
Stream size                              : 1.23 GiB (90%)
Writing library                          : XviD 64

Audio
ID                                       : 1
Format                                   : MPEG Audio
Format version                           : Version 1
Format profile                           : Layer 3
Mode                                     : Joint stereo
Mode extension                           : MS Stereo
Codec ID                                 : 55
Codec ID/Hint                            : MP3
Duration                                 : 1h 40mn
Bit rate mode                            : Constant
Bit rate                                 : 192 Kbps
Channel(s)                               : 2 channels
Sampling rate                            : 48.0 KHz
Compression mode                         : Lossy
Stream size                              : 138 MiB (10%)
Alignment                                : Aligned on interleaves
Interleave, duration                     : 33 ms (1.00 video frame)
Interleave, preload duration             : 504 ms
Writing library                          : LAME3.99.3






http://www37.zippyshare.com/v/87394220/file.html
http://www77.zippyshare.com/v/85297314/file.html
http://www53.zippyshare.com/v/47028330/file.html
http://www14.zippyshare.com/v/13528951/file.html
http://www65.zippyshare.com/v/95551127/file.html
http://www46.zippyshare.com/v/56386477/file.html
http://www50.zippyshare.com/v/36377623/file.html
http://www73.zippyshare.com/v/96326020/file.html
Lego La Pelicula [DVDSCR][Castellano][2014]
0 Puntos Score: 0/10
Visitas: 1226 Favoritos: 1
4 Comentarios Lego La Pelicula [DVDSCR][Castellano][2014]
que tal esta el audio?
Pues nada que ver con las capturas de la imagen, se ve muy opaca y el sonido parece de cine. No perder el tiempo en bajarla y tener paciencia para bajar una con major calidad en Audio y Video. Saludos.
Cita JOBKI77: Mostrar
las capturas son 100% reales de la pelicula que descargaras... aparte de calidad de audio y video es de esperar ya que es un Screener de la pelicula... si quieres calidad buena en audio y video espera el dvdrip para arriba... saludos
amigo---no es un dvdscreener.
dvdscreener son los que estuvimos viendo siempre que se acercan lo oscars. Son versiones de muy buena calidad en imagen y video, pero que presentan un hilo de agua que refieren la propiedad del material.
esto no es un dvdscreener. Igualmente valoro tu trabajo pero aclarlo siempre vale
Para dejar un comentario Registrate! o.. eres ya usuario? Accede!