Oops.. Este post tiene los enlaces eliminados!

Identi revisa las denuncias de los usuarios en busca de enlaces eliminados que no dejan descargar los archivos, este mensaje te informa que este post que estas viendo tiene los enlaces eliminados.

Usa el Buscador

Por favor, te recomendamos que uses el buscador para encontrar más alternativas.

Deadfall [HDRip 720p][Latino][2012]

  • Categoría: Reciclaje
  • Publicado hace más de 2 años



Mientras los hermanos Addison (Eric Bana) y Liza (Olivia Wilde) huyen con el botín que han robado de un casino, el problemático ex boxeador Jay (Charlie Hunnam) va a cenar a casa de sus padres (Sissy Spacek y Kris Kristofferson) el día de Acción de Gracias. Nada saldrá bien a partir de ese instante.



Título: La huida (Deadfall)
Título original: Deadfall
Dirección: Stefan Ruzowitzky
País: Estados Unidos
Año: 2012
Fecha de estreno: 15/11/2013
Duración: 94 min
Género: Criminal, Drama, Thriller
Reparto: Eric Bana, Olivia Wilde, Charlie Hunnam, Sissy Spacek, Kris Kristofferson, Kate Mara, Treat Williams, Alain Goulem, Allison Graham, Jason Cavalier
Web: www.magpictures.com/deadfall/?
Distribuidora: DeA Planeta Home Entertainment
Productora: 2929 Productions, Mutual Film Company, Magnolia Pictures, Madhouse Entertainment, StudioCanal

General
Format                                   : AVI
Format/Info                              : Audio Video Interleave
Format profile                           : OpenDML
File size                                : 1.18 GiB
Duration                                 : 1h 34mn
Overall bit rate                         : 1 782 Kbps
Writing application                      : Lavf52.84.0

Video
ID                                       : 0
Format                                   : MPEG-4 Visual
Codec ID                                 : FMP4
Duration                                 : 1h 34mn
Bit rate                                 : 1 637 Kbps
Width                                    : 1 280 pixels
Height                                   : 720 pixels
Display aspect ratio                     : 16:9
Frame rate                               : 29.970 fps
Color space                              : YUV
Chroma subsampling                       : 4:2:0
Compression mode                         : Lossy
Bits/(Pixel*Frame)                       : 0.059
Stream size                              : 1.08 GiB (92%)

Audio
ID                                       : 1
Format                                   : MPEG Audio
Format version                           : Version 1
Format profile                           : Layer 3
Mode                                     : Joint stereo
Mode extension                           : MS Stereo
Codec ID                                 : 55
Codec ID/Hint                            : MP3
Duration                                 : 1h 34mn
Bit rate mode                            : Constant
Bit rate                                 : 128 Kbps
Channel(s)                               : 2 channels
Sampling rate                            : 48.0 KHz
Compression mode                         : Lossy
Stream size                              : 86.7 MiB (7%)
Alignment                                : Aligned on interleaves
Interleave, duration                     : 24 ms (0.72 video frame)
Writing library                          : LAME3.98.4






http://www58.zippyshare.com/v/65620779/file.html
http://www67.zippyshare.com/v/3875455/file.html
http://www37.zippyshare.com/v/83481474/file.html
http://www74.zippyshare.com/v/8362911/file.html
http://www20.zippyshare.com/v/63421131/file.html
http://www35.zippyshare.com/v/9832478/file.html
http://www4.zippyshare.com/v/30401800/file.html
Deadfall [HDRip 720p][Latino][2012]
0 Puntos Score: 0/10
Visitas: 1910 Favoritos: 1
5 Comentarios Deadfall [HDRip 720p][Latino][2012]
Gracias por la pel?
Para dejar un comentario Registrate! o.. eres ya usuario? Accede!