Yo,Frankenstein [HDRip 720p][VOSE][2014]




Adam (Aaron Eckhart) es un hombre atrapado en la guerra eterna practicada por los ejércitos del Bien y los del Mal. Pero ahora descubre que es mucho más que un hombre: es una criatura extraordinaria, con un poder jamás visto. Algunos dirán que es monstruo. Lo conocen con el sobrecogedor y ancestral nombre de Frankenstein. Y su rol será decisivo en las próximas contiendas que padecerá nuestra especie.



Título: Yo, Frankenstein
Título original: I, Frankenstein
Dirección: Stuart Beattie
País: Estados Unidos, Australia
Año: 2014
Fecha de estreno: 20/06/2014
Duración: 93 min
Género: Acción, Ciencia ficción, Fantástico
Reparto: Aaron Eckhart, Yvonne Strahovski, Bill Nighy, Jai Courtney, Miranda Otto, Caitlin Stasey, Kevin Grevioux, Aden Young, Socratis Otto
Web: www.ifrankensteinfilm.com
Distribuidora: TriPictures
Productora: Lakeshore Entertainment, Hopscotch Films

General
Format                                   : MPEG-4
Format profile                           : Base Media / Version 2
Codec ID                                 : mp42
File size                                : 987 MiB
Duration                                 : 1h 33mn
Overall bit rate mode                    : Variable
Overall bit rate                         : 1 482 Kbps
Album                                    : YO.FRANKENSTEIN
Encoded date                             : UTC 2014-04-26 23:46:57
Tagged date                              : UTC 2014-04-27 00:08:13
Writing application                      : DVDFab

Video
ID                                       : 1
Format                                   : AVC
Format/Info                              : Advanced Video Codec
Format profile                           : [email protected]
Format settings, CABAC                   : Yes
Format settings, ReFrames                : 1 frame
Format settings, GOP                     : M=1, N=24
Codec ID                                 : avc1
Codec ID/Info                            : Advanced Video Coding
Duration                                 : 1h 33mn
Bit rate mode                            : Variable
Bit rate                                 : 1 350 Kbps
Width                                    : 1 280 pixels
Height                                   : 688 pixels
Display aspect ratio                     : 1.85:1
Frame rate mode                          : Variable
Frame rate                               : 23.976 fps
Minimum frame rate                       : 23.974 fps
Maximum frame rate                       : 23.981 fps
Color space                              : YUV
Chroma subsampling                       : 4:2:0
Bit depth                                : 8 bits
Scan type                                : Progressive
Bits/(Pixel*Frame)                       : 0.064
Stream size                              : 899 MiB (91%)
Writing library                          : x264 core
Encoded date                             : UTC 2014-04-26 23:46:57
Tagged date                              : UTC 2014-04-27 00:08:09
Color primaries                          : BT.709-5, BT.1361, IEC 61966-2-4, SMPTE RP177
Transfer characteristics                 : BT.709-5, BT.1361
Matrix coefficients                      : BT.709-5, BT.1361, IEC 61966-2-4 709, SMPTE RP177

Audio
ID                                       : 2
Format                                   : AAC
Format/Info                              : Advanced Audio Codec
Format profile                           : LC
Codec ID                                 : 40
Duration                                 : 1h 33mn
Bit rate mode                            : Variable
Bit rate                                 : 127 Kbps
Maximum bit rate                         : 218 Kbps
Channel(s)                               : 2 channels
Channel positions                        : Front: L R
Sampling rate                            : 48.0 KHz
Compression mode                         : Lossy
Stream size                              : 84.8 MiB (9%)
Language                                 : English
Encoded date                             : UTC 2014-04-26 23:46:57
Tagged date                              : UTC 2014-04-27 00:07:57

Text
ID                                       : 3
Format                                   : Apple text
Codec ID                                 : text
Duration                                 : 1h 33mn
Bit rate mode                            : Variable
Bit rate                                 : 0 bps
Stream size                              : 279 Bytes (0%)
Encoded date                             : UTC 2014-04-26 23:46:57
Tagged date                              : UTC 2014-04-27 00:08:13






http://www71.zippyshare.com/v/86506127/file.html
http://www59.zippyshare.com/v/8717122/file.html
http://www16.zippyshare.com/v/11566995/file.html
http://www14.zippyshare.com/v/8926405/file.html
http://www56.zippyshare.com/v/93947738/file.html
Yo,Frankenstein [HDRip 720p][VOSE][2014]
0 Puntos Score: 0/10
Visitas: 1266 Favoritos: 0
6 Comentarios Yo,Frankenstein [HDRip 720p][VOSE][2014]
QUE SIGNIFICA VOSE
la parte 4 dice latino no vose q es esto?
Cita coqui9o: Mostrar
@coqui9o VOSE significa "Version Original Subtitulada al Espa?
links acomodados... disculpen
No tiene subtitulos chinos?
Cita Tyranus84: Mostrar
no e tenido quejas con subtitulos chinos
Para dejar un comentario Registrate! o.. eres ya usuario? Accede!