Yo,Frankenstein [HDRip 720p][Latino][2014]




Adam (Aaron Eckhart) es un hombre atrapado en la guerra eterna practicada por los ejércitos del Bien y los del Mal. Pero ahora descubre que es mucho más que un hombre: es una criatura extraordinaria, con un poder jamás visto. Algunos dirán que es monstruo. Lo conocen con el sobrecogedor y ancestral nombre de Frankenstein. Y su rol será decisivo en las próximas contiendas que padecerá nuestra especie.



Título: Yo, Frankenstein
Título original: I, Frankenstein
Dirección: Stuart Beattie
País: Estados Unidos, Australia
Año: 2014
Fecha de estreno: 20/06/2014
Duración: 93 min
Género: Acción, Ciencia ficción, Fantástico
Reparto: Aaron Eckhart, Yvonne Strahovski, Bill Nighy, Jai Courtney, Miranda Otto, Caitlin Stasey, Kevin Grevioux, Aden Young, Socratis Otto
Web: www.ifrankensteinfilm.com
Distribuidora: TriPictures
Productora: Lakeshore Entertainment, Hopscotch Films

General
Format                                   : MPEG-4
Format profile                           : Base Media / Version 2
Codec ID                                 : mp42
File size                                : 987 MiB
Duration                                 : 1h 33mn
Overall bit rate mode                    : Variable
Overall bit rate                         : 1 483 Kbps
Album                                    : YO.FRANKENSTEIN
Encoded date                             : UTC 2014-04-27 00:09:25
Tagged date                              : UTC 2014-04-27 00:30:04
Writing application                      : DVDFab

Video
ID                                       : 1
Format                                   : AVC
Format/Info                              : Advanced Video Codec
Format profile                           : [email protected]
Format settings, CABAC                   : Yes
Format settings, ReFrames                : 1 frame
Format settings, GOP                     : M=1, N=24
Codec ID                                 : avc1
Codec ID/Info                            : Advanced Video Coding
Duration                                 : 1h 33mn
Bit rate mode                            : Variable
Bit rate                                 : 1 350 Kbps
Width                                    : 1 280 pixels
Height                                   : 688 pixels
Display aspect ratio                     : 1.85:1
Frame rate mode                          : Variable
Frame rate                               : 23.976 fps
Minimum frame rate                       : 23.974 fps
Maximum frame rate                       : 23.981 fps
Color space                              : YUV
Chroma subsampling                       : 4:2:0
Bit depth                                : 8 bits
Scan type                                : Progressive
Bits/(Pixel*Frame)                       : 0.064
Stream size                              : 899 MiB (91%)
Writing library                          : x264 core
Encoded date                             : UTC 2014-04-27 00:09:25
Tagged date                              : UTC 2014-04-27 00:30:00
Color primaries                          : BT.709-5, BT.1361, IEC 61966-2-4, SMPTE RP177
Transfer characteristics                 : BT.709-5, BT.1361
Matrix coefficients                      : BT.709-5, BT.1361, IEC 61966-2-4 709, SMPTE RP177

Audio
ID                                       : 2
Format                                   : AAC
Format/Info                              : Advanced Audio Codec
Format profile                           : LC
Codec ID                                 : 40
Duration                                 : 1h 33mn
Bit rate mode                            : Variable
Bit rate                                 : 128 Kbps
Maximum bit rate                         : 172 Kbps
Channel(s)                               : 2 channels
Channel positions                        : Front: L R
Sampling rate                            : 48.0 KHz
Compression mode                         : Lossy
Stream size                              : 84.9 MiB (9%)
Language                                 : Spanish
Encoded date                             : UTC 2014-04-27 00:09:25
Tagged date                              : UTC 2014-04-27 00:29:48

Text
ID                                       : 3
Format                                   : Apple text
Codec ID                                 : text
Duration                                 : 1h 33mn
Bit rate mode                            : Variable
Bit rate                                 : 0 bps
Stream size                              : 279 Bytes (0%)
Encoded date                             : UTC 2014-04-27 00:09:25
Tagged date                              : UTC 2014-04-27 00:30:04






http://www12.zippyshare.com/v/60936147/file.html
http://www1.zippyshare.com/v/43066532/file.html
http://www35.zippyshare.com/v/34430949/file.html
http://www37.zippyshare.com/v/69277058/file.html
http://www18.zippyshare.com/v/33864876/file.html
Yo,Frankenstein [HDRip 720p][Latino][2014]
0 Puntos Score: 0/10
Visitas: 2791 Favoritos: 1
5 Comentarios Yo,Frankenstein [HDRip 720p][Latino][2014]
muy buen post ...exelente ...
gracias por el aporte!  
la 3 y 5 dan error  
mi amigo que buen aporte, la parte 4 esta con otro nombre y adentro del rar tiene otro nombre,
seria de ver el link correcto para que todos podamos disfrutar de tu aporte  
Cita nimlotx: Mostrar
link acomodados gracias por avisar
Para dejar un comentario Registrate! o.. eres ya usuario? Accede!