Vampire Academy [HDRip 720p][VOSE][2014]




Rose Hathaway (Zoey Deutch) es una criatura que es mitad vampiro, mitad humana. Sigue un entrenamiento en la Academia de San Vladímir con el objetivo de convertirse en guardiana. En su mundo hay vampiros buenos y malos: Moroi, por ejemplo, cohabita pacíficamente junto a los humanos y posee el control de los elementos de agua, tierra, aire y fuego. En cambio, Strigoi es un adicto a la sangre que sólo piensa en matar a gente inocente. Tras verse envuelta en la muerte de Strigoi, Rose tendrá que proteger a la princesa Dragomir (Lucy Fry) y escapar a toda velocidad de la Academia.



Título: Vampire Academy
Título original: Vampire Academy
Dirección: Mark Waters
País: El Reino Unido, Estados Unidos
Año: 2014
Fecha de estreno: 09/05/2014
Duración: 104 min
Género: Comedia, Acción, Fantástico
Calificación: No recomendada para menores de 13 años
Reparto: Sarah Hyland, Olga Kurylenko, Joely Richardson, Claire Foy, Cameron Monaghan, Gabriel Byrne, Lucy Fry, Sami Gayle
Web: Vampire Academy
Distribuidora: eOne Films
Productora: Kintop Pictures, Angry Films, Preger Entertainment

General
Format                                   : MPEG-4
Format profile                           : Base Media / Version 2
Codec ID                                 : mp42
File size                                : 983 MiB
Duration                                 : 1h 44mn
Overall bit rate mode                    : Variable
Overall bit rate                         : 1 317 Kbps
Encoded date                             : UTC 2014-04-26 01:56:09
Tagged date                              : UTC 2014-04-26 02:17:08
Writing application                      : DVDFab

Video
ID                                       : 1
Format                                   : AVC
Format/Info                              : Advanced Video Codec
Format profile                           : [email protected]
Format settings, CABAC                   : Yes
Format settings, ReFrames                : 1 frame
Format settings, GOP                     : M=1, N=24
Codec ID                                 : avc1
Codec ID/Info                            : Advanced Video Coding
Duration                                 : 1h 44mn
Bit rate mode                            : Variable
Bit rate                                 : 1 185 Kbps
Width                                    : 1 280 pixels
Height                                   : 536 pixels
Display aspect ratio                     : 2.40:1
Frame rate mode                          : Variable
Frame rate                               : 23.976 fps
Minimum frame rate                       : 23.974 fps
Maximum frame rate                       : 23.981 fps
Color space                              : YUV
Chroma subsampling                       : 4:2:0
Bit depth                                : 8 bits
Scan type                                : Progressive
Bits/(Pixel*Frame)                       : 0.072
Stream size                              : 884 MiB (90%)
Writing library                          : x264 core
Encoded date                             : UTC 2014-04-26 01:56:09
Tagged date                              : UTC 2014-04-26 02:17:04
Color primaries                          : BT.709-5, BT.1361, IEC 61966-2-4, SMPTE RP177
Transfer characteristics                 : BT.709-5, BT.1361
Matrix coefficients                      : BT.709-5, BT.1361, IEC 61966-2-4 709, SMPTE RP177

Audio
ID                                       : 2
Format                                   : AAC
Format/Info                              : Advanced Audio Codec
Format profile                           : LC
Codec ID                                 : 40
Duration                                 : 1h 44mn
Bit rate mode                            : Variable
Bit rate                                 : 128 Kbps
Maximum bit rate                         : 169 Kbps
Channel(s)                               : 2 channels
Channel positions                        : Front: L R
Sampling rate                            : 48.0 KHz
Compression mode                         : Lossy
Stream size                              : 95.5 MiB (10%)
Language                                 : English
Encoded date                             : UTC 2014-04-26 01:56:09
Tagged date                              : UTC 2014-04-26 02:16:04






http://www41.zippyshare.com/v/37102977/file.html
http://www66.zippyshare.com/v/69444879/file.html
http://www33.zippyshare.com/v/30682911/file.html
http://www12.zippyshare.com/v/24237316/file.html
http://www41.zippyshare.com/v/26776285/file.html
Vampire Academy [HDRip 720p][VOSE][2014]
0 Puntos Score: 0/10
Visitas: 1279 Favoritos: 0
1 Comentarios Vampire Academy [HDRip 720p][VOSE][2014]
Para dejar un comentario Registrate! o.. eres ya usuario? Accede!