El Viento se Levanta [BRSCR][Castellano][2013]




Undécima película cinematográfica dirigida por Hayao Miyazaki para el Studio Ghibli. Es la historia de Jiro Horikoshi, un ingeniero aeronáutico recordado fundamentalmente por su diseño del Mitsubishi A6M Reisen Zero, el caza de combate japonés más famoso de la Segunda Guerra Mundial. Por lo tanto, es un argumento con tintes autobiográficos, ya que la familia de Miyazaki participó en la fabricación de estos aviones y en partes de su fuselaje.



Título: El viento se levanta
Título original: Kaze tachinu
Dirección: Hayao Miyazaki
País: Japón
Año: 2013
Fecha de estreno: 25/04/2014
Duración: 126 min
Género: Drama, Animación, Biográfico
Calificación: Apta para todos los públicos
Reparto: Hideaki Anno, Jun Kunimura, Hidetoshi Nishijima, Masahiko Nishimura, Morio Kazama, Joseph Gordon-Levitt, John Krasinski, Emily Blunt, Martin Short, Stanley Tucci
Web: www.thewindrisesmovie.tumblr.com
Distribuidora: Vertigo Films
Productora: Studio Ghibli

General
Format                                   : MPEG-4
Format profile                           : Base Media
Codec ID                                 : isom
File size                                : 732 MiB
Duration                                 : 2h 1mn
Overall bit rate mode                    : Variable
Overall bit rate                         : 842 Kbps
Writing application                      : Lavf54.63.104

Video
ID                                       : 1
Format                                   : AVC
Format/Info                              : Advanced Video Codec
Format profile                           : [email protected]
Format settings, CABAC                   : Yes
Format settings, ReFrames                : 4 frames
Codec ID                                 : avc1
Codec ID/Info                            : Advanced Video Coding
Duration                                 : 2h 1mn
Bit rate                                 : 750 Kbps
Width                                    : 720 pixels
Height                                   : 384 pixels
Display aspect ratio                     : 1.85:1
Frame rate mode                          : Constant
Frame rate                               : 25.000 fps
Color space                              : YUV
Chroma subsampling                       : 4:2:0
Bit depth                                : 8 bits
Scan type                                : Progressive
Bits/(Pixel*Frame)                       : 0.109
Stream size                              : 655 MiB (89%)
Writing library                          : x264 core 120 r2151 a3f4407
Encoding settings                        : cabac=1 / ref=3 / deblock=1:0:0 / analyse=0x3:0x113 / me=hex / subme=7 / psy=1 / psy_rd=1.00:0.00 / mixed_ref=1 / me_range=16 / chroma_me=1 / trellis=1 / 8x8dct=1 / cqm=0 / deadzone=21,11 / fast_pskip=1 / chroma_qp_offset=-2 / threads=16 / sliced_threads=0 / nr=0 / decimate=1 / interlaced=0 / bluray_compat=0 / constrained_intra=0 / bframes=3 / b_pyramid=2 / b_adapt=1 / b_bias=0 / direct=1 / weightb=1 / open_gop=0 / weightp=2 / keyint=25 / keyint_min=2 / scenecut=40 / intra_refresh=0 / rc_lookahead=25 / rc=abr / mbtree=1 / bitrate=750 / ratetol=1.0 / qcomp=0.60 / qpmin=0 / qpmax=69 / qpstep=4 / ip_ratio=1.40 / aq=1:1.00

Audio
ID                                       : 2
Format                                   : AAC
Format/Info                              : Advanced Audio Codec
Format profile                           : LC
Codec ID                                 : 40
Duration                                 : 2h 1mn
Duration_LastFrame                       : -5ms
Bit rate mode                            : Variable
Bit rate                                 : 84.2 Kbps
Maximum bit rate                         : 128 Kbps
Channel(s)                               : 2 channels
Channel positions                        : Front: L R
Sampling rate                            : 24.0 KHz
Compression mode                         : Lossy
Stream size                              : 73.2 MiB (10%)






http://www6.zippyshare.com/v/20624744/file.html
http://www9.zippyshare.com/v/61797785/file.html
http://www35.zippyshare.com/v/23296114/file.html
http://www30.zippyshare.com/v/23096128/file.html
El Viento se Levanta [BRSCR][Castellano][2013]
15 Puntos Score: 7.5/10
Visitas: 1770 Favoritos: 3
Ver los usuarios que votaron...
5 Comentarios El Viento se Levanta [BRSCR][Castellano][2013]
Tiempo esperando para ver esta peli, gracias.
muy esperando verla pero tengo la iliusi?
excelente aporte +10
Cita canulabram: Mostrar
muy buen aporte se agradece ... tiempo esperandola
Para dejar un comentario Registrate! o.. eres ya usuario? Accede!