A Haunted House [DVDRip][Latino][2013]




En esta parodia de la saga de películas de terror doméstico llamada 'Paranormal Activity', los protagonistas son Malcolm y Kisha (Marlon Wayans y Essence Atkins), una pareja de recién casados que se mudan a la casa de sus sueños. Pronto descubren que no están solos y que deben compartir las habitaciones de esta mansión con un fantasma. Cuando Kisha es poseída por el demonio, Malcolm debe convertirse en un híbrido de sacerdote, científico y caza fantasmas para ayudarle a volver a la realidad. Las consecuencias serán terriblemente divertidas.



Título: Paranormal Movie
Título original: A Haunted House
Dirección: Michael Tiddes
País: Estados Unidos
Año: 2013
Fecha de estreno: 20/12/2013
Duración: 86 min
Género: Comedia, Terror
Calificación: No recomendada para menores de 18 años
Reparto: Marlon Wayans, Marlene Forte, Essence Atkins, David Koechner, Dave Sheridan, Nick Swardson, Alanna Ubach, Andrew Daly, Cedric the Entertainer, Affion Crockett
Web: www.ahauntedhousemovie.com
Distribuidora: Flins y Pinículas
Productora: Wayans Bros. Entertainment, IM Global Octane

General
Format                                   : MPEG-4
Format profile                           : Base Media / Version 2
Codec ID                                 : mp42
File size                                : 490 MiB
Duration                                 : 1h 25mn
Overall bit rate mode                    : Variable
Overall bit rate                         : 799 Kbps
Encoded date                             : UTC 2013-05-24 17:20:53
Tagged date                              : UTC 2013-05-24 17:32:29
Writing application                      : HandBrake 0.9.8 2012071700

Video
ID                                       : 1
Format                                   : AVC
Format/Info                              : Advanced Video Codec
Format profile                           : [email protected]
Format settings, CABAC                   : Yes
Format settings, ReFrames                : 4 frames
Codec ID                                 : avc1
Codec ID/Info                            : Advanced Video Coding
Duration                                 : 1h 25mn
Bit rate mode                            : Variable
Bit rate                                 : 700 Kbps
Width                                    : 720 pixels
Height                                   : 480 pixels
Display aspect ratio                     : 16:9
Original display aspect ratio            : 16:9
Frame rate mode                          : Variable
Frame rate                               : 29.970 fps
Minimum frame rate                       : 5.994 fps
Maximum frame rate                       : 29.970 fps
Standard                                 : NTSC
Color space                              : YUV
Chroma subsampling                       : 4:2:0
Bit depth                                : 8 bits
Scan type                                : Progressive
Bits/(Pixel*Frame)                       : 0.068
Stream size                              : 428 MiB (87%)
Writing library                          : x264 core 120
Encoding settings                        : cabac=1 / ref=1 / deblock=1:0:0 / analyse=0x1:0x111 / me=hex / subme=2 / psy=1 / psy_rd=1.00:0.00 / mixed_ref=0 / me_range=16 / chroma_me=1 / trellis=0 / 8x8dct=0 / cqm=0 / deadzone=21,11 / fast_pskip=1 / chroma_qp_offset=0 / threads=12 / sliced_threads=0 / nr=0 / decimate=1 / interlaced=0 / bluray_compat=0 / constrained_intra=0 / bframes=3 / b_pyramid=2 / b_adapt=1 / b_bias=0 / direct=1 / weightb=1 / open_gop=0 / weightp=1 / keyint=240 / keyint_min=24 / scenecut=40 / intra_refresh=0 / rc_lookahead=10 / rc=abr / mbtree=1 / bitrate=700 / ratetol=1.0 / qcomp=0.60 / qpmin=3 / qpmax=69 / qpstep=4 / ip_ratio=1.40 / aq=1:1.00
Encoded date                             : UTC 2013-05-24 17:20:53
Tagged date                              : UTC 2013-05-24 17:32:28
Color primaries                          : BT.601-6 525, BT.1358 525, BT.1700 NTSC, SMPTE 170M
Transfer characteristics                 : BT.709-5, BT.1361
Matrix coefficients                      : BT.601-6 525, BT.1358 525, BT.1700 NTSC, SMPTE 170M

Audio
ID                                       : 2
Format                                   : AAC
Format/Info                              : Advanced Audio Codec
Format profile                           : LC
Codec ID                                 : 40
Duration                                 : 1h 25mn
Bit rate mode                            : Variable
Bit rate                                 : 96.0 Kbps
Maximum bit rate                         : 161 Kbps
Channel(s)                               : 2 channels
Channel positions                        : Front: L R
Sampling rate                            : 48.0 KHz
Compression mode                         : Lossy
Stream size                              : 58.8 MiB (12%)
Language                                 : Spanish
Encoded date                             : UTC 2013-05-24 17:20:53
Tagged date                              : UTC 2013-05-24 17:32:28

Text
ID                                       : 3
Format                                   : Apple text
Codec ID                                 : text
Duration                                 : 1h 25mn
Bit rate mode                            : Variable
Bit rate                                 : 0 bps
Stream size                              : 279 Bytes (0%)
Encoded date                             : UTC 2013-05-24 17:20:53
Tagged date                              : UTC 2013-05-24 17:32:28






http://www49.zippyshare.com/v/16166658/file.html
http://www5.zippyshare.com/v/65833002/file.html
http://www18.zippyshare.com/v/99812136/file.html
A Haunted House [DVDRip][Latino][2013]
5 Puntos Score: 5/10
Visitas: 1708 Favoritos: 0
Ver los usuarios que votaron...
0 Comentarios A Haunted House [DVDRip][Latino][2013]
Este post no tiene comentarios. Sea el primero!
Para dejar un comentario Registrate! o.. eres ya usuario? Accede!