Juego Letal [HDRip 720p][Latino][2009]




En un futuro, en un juego denominado Slayers, uno de los participantes puede controlar a millones de seres humanos a través del sistema multijugador. En el ?Slayer? juego y espectáculo están envueltos en un híbrido aterrador. Humanos controlados por humanos a gran escala, juegos en red donde personas representan a personas para siempre. La Tecnología del control mental se ha extendido, y el corazón de ese controvertido e hiperviolento juego es su creador, el multimillonario Ken Castle (Michael C. Hall). Su última creación es un juego de disparo en primera persona, que permite proyectar las fantasías más salvajes de cada uno ante un público global, utilizando prisioneros reales como avatares que luchan contra la muerte. Pero Kable (Gerard Butler), un poderoso guerrero controlado por el joven Simon, intentará liberarse a sí mismo y al resto de jugadores del mundo?



TÍTULO ORIGINAL: Gamer (Citizen Game)
OTROS TÍTULOS: Gamer: Juego Letal
AÑO: 2009
DURACIÓN: 95 min.
PAÍS: USA
DIRECTOR: Mark Neveldine, Brian Taylor
GUIÓN: Mark Neveldine, Brian Taylor
MÚSICA: Robb Williamson, Geoff Zanelli
FOTOGRAFÍA: Ekkehart Pollack
REPARTO: Gerard Butler, Michael C. Hall, Alison Lohman, John Leguizamo, Amber Valletta, Aaron Yo, Logan Lerman, Keith David, Ludacris, Michael Weston, Kyra Sedgwick, Noel Gugliemi, Terry Crews, Johnny Whitworth, Zoe Bell, Milo Ventimiglia, Dylan Kenin, Efren Ramirez, Stephanie Mace, Sam Witwer
PRODUCTORA: Lions Gate Films / Lakeshore Entertainment / Albuquerque Studios
GÉNERO: Ciencia ficción. Thriller. Acción | Videojuego

General
Format                                   : Matroska
Format version                           : Version 2
File size                                : 913 MiB
Duration                                 : 1h 34mn
Overall bit rate                         : 1 347 Kbps
Encoded date                             : UTC 2012-07-24 16:55:54
Writing application                      : mkvmerge v3.4.0 ('Rapunzel') built on May 15 2010 09:38:20
Writing library                          : libebml v0.8.0 + libmatroska v0.9.0

Video
ID                                       : 1
Format                                   : AVC
Format/Info                              : Advanced Video Codec
Format profile                           : [email protected]
Format settings, CABAC                   : Yes
Format settings, ReFrames                : 6 frames
Codec ID                                 : V_MPEG4/ISO/AVC
Duration                                 : 1h 34mn
Bit rate                                 : 899 Kbps
Width                                    : 1 280 pixels
Height                                   : 688 pixels
Display aspect ratio                     : 1.85:1
Frame rate                               : 23.976 fps
Color space                              : YUV
Chroma subsampling                       : 4:2:0
Bit depth                                : 8 bits
Scan type                                : Progressive
Bits/(Pixel*Frame)                       : 0.043
Stream size                              : 591 MiB (65%)
Title                                    : WwW.DD-Peliculas.COM
Writing library                          : x264 core 98 r1649 20cbe10
Encoding settings                        : cabac=1 / ref=6 / deblock=1:1:1 / analyse=0x3:0x113 / me=hex / subme=7 / psy=1 / psy_rd=0.40:0.00 / mixed_ref=1 / me_range=16 / chroma_me=1 / trellis=1 / 8x8dct=1 / cqm=0 / deadzone=21,11 / fast_pskip=1 / chroma_qp_offset=-2 / threads=24 / sliced_threads=0 / nr=0 / decimate=1 / interlaced=0 / constrained_intra=0 / bframes=5 / b_pyramid=2 / b_adapt=1 / b_bias=0 / direct=1 / weightb=1 / weightp=2 / keyint=250 / keyint_min=25 / scenecut=40 / intra_refresh=0 / rc_lookahead=40 / rc=2pass / mbtree=1 / bitrate=899 / ratetol=1.0 / qcomp=0.60 / qpmin=10 / qpmax=51 / qpstep=4 / cplxblur=20.0 / qblur=0.5 / ip_ratio=1.40 / aq=1:0.60
Language                                 : Spanish
Default                                  : No
Forced                                   : No

Audio
ID                                       : 2
Format                                   : AC-3
Format/Info                              : Audio Coding 3
Mode extension                           : CM (complete main)
Format settings, Endianness              : Big
Codec ID                                 : A_AC3
Duration                                 : 1h 34mn
Bit rate mode                            : Constant
Bit rate                                 : 448 Kbps
Channel(s)                               : 6 channels
Channel positions                        : Front: L C R, Side: L R, LFE
Sampling rate                            : 48.0 KHz
Bit depth                                : 16 bits
Compression mode                         : Lossy
Stream size                              : 304 MiB (33%)
Title                                    : WwW.DD-Peliculas.COM
Language                                 : Spanish
Default                                  : Yes
Forced                                   : No

Text
ID                                       : 3
Format                                   : UTF-8
Codec ID                                 : S_TEXT/UTF8
Codec ID/Info                            : UTF-8 Plain Text
Title                                    : WwW.DD-Peliculas.COM
Language                                 : Spanish
Default                                  : Yes
Forced                                   : No






http://www72.zippyshare.com/v/49173300/file.html
http://www21.zippyshare.com/v/11253306/file.html
http://www32.zippyshare.com/v/34813321/file.html
http://www29.zippyshare.com/v/79646315/file.html
http://www33.zippyshare.com/v/92096571/file.html
Juego Letal [HDRip 720p][Latino][2009]
0 Puntos Score: 0/10
Visitas: 1273 Favoritos: 0
1 Comentarios Juego Letal [HDRip 720p][Latino][2009]
Gracias Por El Aporte Gran Trabajo... Simplemente Excelente...
Para dejar un comentario Registrate! o.. eres ya usuario? Accede!