Devils Due [BRSCR][Castellano][2014]




Todo comienza con la luna de miel celebrada por una pareja de recién casados. Durante estos días de ardiente felicidad, la mujer se queda embarazada. El marido, al poder vivir esta oportunidad, decide grabar todo el embarazo para el recuerdo. Les comunican que serán padres antes de tiempo debido a la rápida gestación del feto. Poco a poco, la mujer va entrando en un estado de nervios y desesperación nunca vistos durante la gestación...



Título: El heredero del diablo
Título original: Devil's Due
Dirección: Matt Bettinelli-Olpin
País: Estados Unidos
Año: 2014
Fecha de estreno: 25/04/2014
Duración: 89 min
Género: Terror
Calificación: No recomendada para menores de 16 años
Reparto: Robert Belushi, Catherine Kresge, Aimee Carrero, Zach Gilford, Allison Miller, Sam Anderson, Vanessa Ray
Distribuidora: 20th Century Fox
Productora: Twentieth Century Fox, Davis Entertainment

General
Format                                   : MPEG-4
Format profile                           : Base Media
Codec ID                                 : isom
File size                                : 537 MiB
Duration                                 : 1h 29mn
Overall bit rate mode                    : Variable
Overall bit rate                         : 843 Kbps
Writing application                      : Lavf54.63.104

Video
ID                                       : 1
Format                                   : AVC
Format/Info                              : Advanced Video Codec
Format profile                           : [email protected]
Format settings, CABAC                   : Yes
Format settings, ReFrames                : 4 frames
Codec ID                                 : avc1
Codec ID/Info                            : Advanced Video Coding
Duration                                 : 1h 29mn
Bit rate                                 : 750 Kbps
Width                                    : 720 pixels
Height                                   : 384 pixels
Display aspect ratio                     : 1.85:1
Frame rate mode                          : Constant
Frame rate                               : 23.976 fps
Color space                              : YUV
Chroma subsampling                       : 4:2:0
Bit depth                                : 8 bits
Scan type                                : Progressive
Bits/(Pixel*Frame)                       : 0.113
Stream size                              : 482 MiB (90%)
Writing library                          : x264 core 120 r2151 a3f4407
Encoding settings                        : cabac=1 / ref=3 / deblock=1:0:0 / analyse=0x3:0x113 / me=hex / subme=7 / psy=1 / psy_rd=1.00:0.00 / mixed_ref=1 / me_range=16 / chroma_me=1 / trellis=1 / 8x8dct=1 / cqm=0 / deadzone=21,11 / fast_pskip=1 / chroma_qp_offset=-2 / threads=16 / sliced_threads=0 / nr=0 / decimate=1 / interlaced=0 / bluray_compat=0 / constrained_intra=0 / bframes=3 / b_pyramid=2 / b_adapt=1 / b_bias=0 / direct=1 / weightb=1 / open_gop=0 / weightp=2 / keyint=25 / keyint_min=2 / scenecut=40 / intra_refresh=0 / rc_lookahead=25 / rc=abr / mbtree=1 / bitrate=750 / ratetol=1.0 / qcomp=0.60 / qpmin=0 / qpmax=69 / qpstep=4 / ip_ratio=1.40 / aq=1:1.00

Audio
ID                                       : 2
Format                                   : AAC
Format/Info                              : Advanced Audio Codec
Format profile                           : LC
Codec ID                                 : 40
Duration                                 : 1h 29mn
Duration_LastFrame                       : -21ms
Bit rate mode                            : Variable
Bit rate                                 : 82.7 Kbps
Maximum bit rate                         : 128 Kbps
Channel(s)                               : 2 channels
Channel positions                        : Front: L R
Sampling rate                            : 24.0 KHz
Compression mode                         : Lossy
Stream size                              : 52.7 MiB (10%)






http://www14.zippyshare.com/v/77164018/file.html
http://www77.zippyshare.com/v/61605710/file.html
http://www29.zippyshare.com/v/64950310/file.html[/url]
Devils Due [BRSCR][Castellano][2014]
0 Puntos Score: 0/10
Visitas: 892 Favoritos: 0
0 Comentarios Devils Due [BRSCR][Castellano][2014]
Este post no tiene comentarios. Sea el primero!
Para dejar un comentario Registrate! o.. eres ya usuario? Accede!