Purgatorio [DVDRip][Castellano][2014]




Cuenta la historia de una joven que se ve obligada a cuidar del hijo de su recién llegada vecina. El tiempo pasa y nadie aparece para recogerlo, pero lo que es peor es que la actitud del chaval empieza a ser cada vez más rara, llegando a afirmar que hay otro niño escondido bajo la casa de nuestra protagonista.



TÍTULO ORIGINAL: Purgatorio
AÑO: 2014
DURACIÓN: 85 min.
PAÍS: [España]
DIRECTOR: Pau Teixidor
REPARTO: Oona Chaplin, Ana Fernández, Andrés Gertrudix, Sergi Méndez
GÉNERO: Thriller. Terror. Drama | Sobrenatural

General
Format                                   : MPEG-4
Format profile                           : Base Media
Codec ID                                 : isom
File size                                : 470 MiB
Duration                                 : 1h 19mn
Overall bit rate mode                    : Variable
Overall bit rate                         : 830 Kbps
Writing application                      : Lavf54.63.104

Video
ID                                       : 1
Format                                   : AVC
Format/Info                              : Advanced Video Codec
Format profile                           : [email protected]
Format settings, CABAC                   : Yes
Format settings, ReFrames                : 4 frames
Codec ID                                 : avc1
Codec ID/Info                            : Advanced Video Coding
Duration                                 : 1h 19mn
Bit rate                                 : 750 Kbps
Width                                    : 720 pixels
Height                                   : 400 pixels
Display aspect ratio                     : 16:9
Frame rate mode                          : Constant
Frame rate                               : 25.000 fps
Color space                              : YUV
Chroma subsampling                       : 4:2:0
Bit depth                                : 8 bits
Scan type                                : Progressive
Bits/(Pixel*Frame)                       : 0.104
Stream size                              : 421 MiB (89%)
Writing library                          : x264 core 120 r2151 a3f4407
Encoding settings                        : cabac=1 / ref=3 / deblock=1:0:0 / analyse=0x3:0x113 / me=hex / subme=7 / psy=1 / psy_rd=1.00:0.00 / mixed_ref=1 / me_range=16 / chroma_me=1 / trellis=1 / 8x8dct=1 / cqm=0 / deadzone=21,11 / fast_pskip=1 / chroma_qp_offset=-2 / threads=16 / sliced_threads=0 / nr=0 / decimate=1 / interlaced=0 / bluray_compat=0 / constrained_intra=0 / bframes=3 / b_pyramid=2 / b_adapt=1 / b_bias=0 / direct=1 / weightb=1 / open_gop=0 / weightp=2 / keyint=25 / keyint_min=2 / scenecut=40 / intra_refresh=0 / rc_lookahead=25 / rc=abr / mbtree=1 / bitrate=750 / ratetol=1.0 / qcomp=0.60 / qpmin=0 / qpmax=69 / qpstep=4 / ip_ratio=1.40 / aq=1:1.00

Audio
ID                                       : 2
Format                                   : AAC
Format/Info                              : Advanced Audio Codec
Format profile                           : LC
Codec ID                                 : 40
Duration                                 : 1h 19mn
Bit rate mode                            : Variable
Bit rate                                 : 82.7 Kbps
Maximum bit rate                         : 128 Kbps
Channel(s)                               : 2 channels
Channel positions                        : Front: L R
Sampling rate                            : 24.0 KHz
Compression mode                         : Lossy
Stream size                              : 46.8 MiB (10%)






http://www58.zippyshare.com/v/92898277/file.html
http://www58.zippyshare.com/v/52915088/file.html
http://www51.zippyshare.com/v/94059454/file.html
Purgatorio [DVDRip][Castellano][2014]
5 Puntos Score: 5/10
Visitas: 1584 Favoritos: 3
Ver los usuarios que votaron...
3 Comentarios Purgatorio [DVDRip][Castellano][2014]
Parece buena,exclente!!
muy bien!!! muchas gracias!!!!!    
Bajando... +5  
Para dejar un comentario Registrate! o.. eres ya usuario? Accede!