Maxima Seguridad [HDRip 720p][Latino][2012]




MS1 es una prisión experimental en el espacio donde están encerrados los 500 criminales más peligrosos del planeta Tierra, que se mantienen en un estado de letargo inducido artificialmente. La hija del presidente de los Estados Unidos, Emilie Warnock (Maggie Grace), encabeza una misión humanitaria que llega a bordo de la estación espacial justo cuando estalla un motín de una violencia inaudita. 

Emilie y la tripulación de la MS1 acaban convertidos en rehenes de los reclusos. El presidente Warnock (Peter Hudson) decide enviar al agente Snow (Guy Pierce) a la MS1 con la única misión de salvar a Emilie, y a nadie más...



Título: MS1: Máxima Seguridad
Título original: Lockout
Dirección: Stephen St. Leger, James Mather
País: Francia, Estados Unidos
Año: 2012
Fecha de estreno: 15/06/2012
Duración: 95 min
Género: Thriller, Acción, Ciencia ficción
Calificación: No recomendada para menores de 16 años
Reparto: Guy Pearce, Maggie Grace, Vincent Regan, Joseph Gilgun, Lennie James, Peter Stormare, Jacky Ido, Tim Plester, Mark Tankersley, Anne-Solenne Hatte
Guión: Luc Besson, Stephen St. Leger, James Mather
Web: www.lockoutfilm.com
Distribuidora: Aurum Producciones
Productora: Europa Corp., FilmDistrict

General
Format                                   : Matroska
Format version                           : Version 2
File size                                : 1 003 MiB
Duration                                 : 1h 35mn
Overall bit rate                         : 1 472 Kbps
Encoded date                             : UTC 2012-07-19 21:25:46
Writing application                      : mkvmerge v3.4.0 ('Rapunzel') built on May 15 2010 09:38:20
Writing library                          : libebml v0.8.0 + libmatroska v0.9.0

Video
ID                                       : 1
Format                                   : AVC
Format/Info                              : Advanced Video Codec
Format profile                           : [email protected]
Format settings, CABAC                   : Yes
Format settings, ReFrames                : 6 frames
Codec ID                                 : V_MPEG4/ISO/AVC
Duration                                 : 1h 35mn
Bit rate                                 : 1 023 Kbps
Width                                    : 1 280 pixels
Height                                   : 544 pixels
Display aspect ratio                     : 2.35:1
Frame rate                               : 23.976 fps
Color space                              : YUV
Chroma subsampling                       : 4:2:0
Bit depth                                : 8 bits
Scan type                                : Progressive
Bits/(Pixel*Frame)                       : 0.061
Stream size                              : 678 MiB (68%)
Title                                    : WwW.DD-Peliculas.COM
Writing library                          : x264 core 98 r1649 20cbe10
Encoding settings                        : cabac=1 / ref=6 / deblock=1:1:1 / analyse=0x3:0x113 / me=hex / subme=7 / psy=1 / psy_rd=0.40:0.00 / mixed_ref=1 / me_range=16 / chroma_me=1 / trellis=1 / 8x8dct=1 / cqm=0 / deadzone=21,11 / fast_pskip=1 / chroma_qp_offset=-2 / threads=24 / sliced_threads=0 / nr=0 / decimate=1 / interlaced=0 / constrained_intra=0 / bframes=5 / b_pyramid=2 / b_adapt=1 / b_bias=0 / direct=1 / weightb=1 / weightp=2 / keyint=250 / keyint_min=25 / scenecut=40 / intra_refresh=0 / rc_lookahead=40 / rc=2pass / mbtree=1 / bitrate=1023 / ratetol=1.0 / qcomp=0.60 / qpmin=10 / qpmax=51 / qpstep=4 / cplxblur=20.0 / qblur=0.5 / ip_ratio=1.40 / aq=1:0.60
Language                                 : Spanish
Default                                  : No
Forced                                   : No

Audio
ID                                       : 2
Format                                   : AC-3
Format/Info                              : Audio Coding 3
Mode extension                           : CM (complete main)
Format settings, Endianness              : Big
Codec ID                                 : A_AC3
Duration                                 : 1h 35mn
Bit rate mode                            : Constant
Bit rate                                 : 448 Kbps
Channel(s)                               : 6 channels
Channel positions                        : Front: L C R, Side: L R, LFE
Sampling rate                            : 48.0 KHz
Bit depth                                : 16 bits
Compression mode                         : Lossy
Stream size                              : 305 MiB (30%)
Title                                    : WwW.DD-Peliculas.COM
Language                                 : Spanish
Default                                  : No
Forced                                   : No

Text
ID                                       : 3
Format                                   : UTF-8
Codec ID                                 : S_TEXT/UTF8
Codec ID/Info                            : UTF-8 Plain Text
Title                                    : WwW.DD-Peliculas.COM
Language                                 : Spanish
Default                                  : No
Forced                                   : No






http://www16.zippyshare.com/v/42930619/file.html
http://www2.zippyshare.com/v/43970942/file.html
http://www5.zippyshare.com/v/38806386/file.html
http://www38.zippyshare.com/v/86770892/file.html
http://www33.zippyshare.com/v/50051865/file.html
http://www15.zippyshare.com/v/5678722/file.html
Maxima Seguridad [HDRip 720p][Latino][2012]
5 Puntos Score: 5/10
Visitas: 1726 Favoritos: 1
Ver los usuarios que votaron...
4 Comentarios Maxima Seguridad [HDRip 720p][Latino][2012]
gracias ignora el comentario de arriba xD
Muy buen aporte - Gracias x compartir
Gracias por el aporte, muy mala por cierto, trama pecima
Para dejar un comentario Registrate! o.. eres ya usuario? Accede!