Nymphomaniac [HDRip][VOSE][2013]




Película de Lars Von Trier que, en España, se estrenará en dos mitades: la primera el 24 de diciembre de 2013 y la segunda el 25 de enero de 2014. Todo empieza cuando Seligman (Stellan Skarsgard), un hombre soltero, encuentra a una mujer tirada en el suelo. Su nombre es Joe (Charlotte Gainsbourg) y acaba de recibir una paliza. Seligman la lleva a su casa para curarle las heridas. Allí, Joe le confesará que es una ninfómana y le narrará su vida en ocho episodios llenos de pasión, sexo y mucho dolor.



Título: Nymphomaniac
Título original: Nymphomaniac
Dirección: Lars von Trier
País: Francia, Alemania, Dinamarca, Bélgica
Año: 2013
Fecha de estreno: 25/12/2013
Duración: 122 min
Género: Drama
Calificación: No recomendada para menores de 18 años
Reparto: Stellan Skarsgård, Charlotte Gainsbourg, Shia LaBeouf, Jamie Bell, Christian Slater, Connie Nielsen, Willem Dafoe, Jesper Christensen, Jens Albinus, Nicolas Bro
Web: www.nymphomaniacthemovie.com
Distribuidora: Golem Distribución
Productora: Les Films du Losange, Artificial Eye, Zentropa Entertainments, Slot Machine, Film i Väst, Heimatfilm, Caviar Films, Concorde Filmverleih

General
Format                                   : AVI
Format/Info                              : Audio Video Interleave
Format profile                           : OpenDML
File size                                : 1.80 GiB
Duration                                 : 3h 47mn
Overall bit rate mode                    : Variable
Overall bit rate                         : 1 135 Kbps
Writing application                      : Lavf52.84.0

Video
ID                                       : 0
Format                                   : MPEG-4 Visual
Codec ID                                 : FMP4
Duration                                 : 3h 47mn
Bit rate                                 : 992 Kbps
Width                                    : 864 pixels
Height                                   : 432 pixels
Display aspect ratio                     : 2.000
Frame rate                               : 29.970 fps
Color space                              : YUV
Chroma subsampling                       : 4:2:0
Compression mode                         : Lossy
Bits/(Pixel*Frame)                       : 0.089
Stream size                              : 1.57 GiB (87%)

Audio
ID                                       : 1
Format                                   : AAC
Format/Info                              : Advanced Audio Codec
Format version                           : Version 4
Format profile                           : LC
Muxing mode                              : ADTS
Codec ID                                 : FF
Duration                                 : 3h 47mn
Bit rate mode                            : Variable
Bit rate                                 : 128 Kbps
Minimum bit rate                         : 6 000 bps
Maximum bit rate                         : 22.1 Kbps
Channel(s)                               : 2 channels
Channel positions                        : Front: L R
Sampling rate                            : 48.0 KHz
Compression mode                         : Lossy
Stream size                              : 208 MiB (11%)
Alignment                                : Aligned on interleaves
Interleave, duration                     : 21 ms (0.64 video frame)






http://www39.zippyshare.com/v/9030223/file.html
http://www4.zippyshare.com/v/10979116/file.html
http://www68.zippyshare.com/v/19025387/file.html
http://www8.zippyshare.com/v/15477641/file.html
http://www35.zippyshare.com/v/34176895/file.html
http://www38.zippyshare.com/v/41981796/file.html
http://www12.zippyshare.com/v/92626755/file.html
http://www32.zippyshare.com/v/38760291/file.html
http://www38.zippyshare.com/v/43170559/file.html
http://www32.zippyshare.com/v/13950668/file.html
Nymphomaniac [HDRip][VOSE][2013]
10 Puntos Score: 10/10
Visitas: 2131 Favoritos: 1
Ver los usuarios que votaron...
1 Comentarios Nymphomaniac [HDRip][VOSE][2013]
se ve interesante...  veamos... gracias
Para dejar un comentario Registrate! o.. eres ya usuario? Accede!