Nymphomaniac [HDRip][Castellano][2013]




Película de Lars Von Trier que, en España, se estrenará en dos mitades: la primera el 24 de diciembre de 2013 y la segunda el 25 de enero de 2014. Todo empieza cuando Seligman (Stellan Skarsgard), un hombre soltero, encuentra a una mujer tirada en el suelo. Su nombre es Joe (Charlotte Gainsbourg) y acaba de recibir una paliza. Seligman la lleva a su casa para curarle las heridas. Allí, Joe le confesará que es una ninfómana y le narrará su vida en ocho episodios llenos de pasión, sexo y mucho dolor.



Título: Nymphomaniac
Título original: Nymphomaniac
Dirección: Lars von Trier
País: Francia, Alemania, Dinamarca, Bélgica
Año: 2013
Fecha de estreno: 25/12/2013
Duración: 122 min
Género: Drama
Calificación: No recomendada para menores de 18 años
Reparto: Stellan Skarsgård, Charlotte Gainsbourg, Shia LaBeouf, Jamie Bell, Christian Slater, Connie Nielsen, Willem Dafoe, Jesper Christensen, Jens Albinus, Nicolas Bro
Web: www.nymphomaniacthemovie.com
Distribuidora: Golem Distribución
Productora: Les Films du Losange, Artificial Eye, Zentropa Entertainments, Slot Machine, Film i Väst, Heimatfilm, Caviar Films, Concorde Filmverleih

General
Format                                   : AVI
Format/Info                              : Audio Video Interleave
File size                                : 1.90 GiB
Duration                                 : 1h 57mn
Overall bit rate                         : 2 321 Kbps
Writing application                      : VirtualDubMod 1.5.10.2 (build 2542/release)
Writing library                          : VirtualDubMod build 2542/release

Video
ID                                       : 0
Format                                   : MPEG-4 Visual
Format profile                           : [email protected]
Format settings, BVOP                    : No
Format settings, QPel                    : No
Format settings, GMC                     : No warppoints
Format settings, Matrix                  : Default (H.263)
Codec ID                                 : XVID
Codec ID/Hint                            : XviD
Duration                                 : 1h 57mn
Bit rate                                 : 1 928 Kbps
Width                                    : 720 pixels
Height                                   : 304 pixels
Display aspect ratio                     : 2.35:1
Frame rate                               : 23.976 fps
Color space                              : YUV
Chroma subsampling                       : 4:2:0
Bit depth                                : 8 bits
Scan type                                : Progressive
Compression mode                         : Lossy
Bits/(Pixel*Frame)                       : 0.367
Stream size                              : 1.58 GiB (83%)
Writing library                          : XviD 64

Audio
ID                                       : 1
Format                                   : AC-3
Format/Info                              : Audio Coding 3
Mode extension                           : CM (complete main)
Format settings, Endianness              : Big
Codec ID                                 : 2000
Duration                                 : 1h 57mn
Bit rate mode                            : Constant
Bit rate                                 : 384 Kbps
Channel(s)                               : 6 channels
Channel positions                        : Front: L C R, Side: L R, LFE
Sampling rate                            : 48.0 KHz
Bit depth                                : 16 bits
Compression mode                         : Lossy
Delay relative to video                  : 16ms
Stream size                              : 322 MiB (17%)
Alignment                                : Split accross interleaves
Interleave, duration                     : 42 ms (1.00 video frame)
Interleave, preload duration             : 500 ms






http://www11.zippyshare.com/v/73383416/file.html
http://www44.zippyshare.com/v/36600710/file.html
http://www57.zippyshare.com/v/51045332/file.html
http://www40.zippyshare.com/v/88299235/file.html
http://www60.zippyshare.com/v/62618644/file.html
http://www5.zippyshare.com/v/11734188/file.html
http://www69.zippyshare.com/v/87971915/file.html
http://www34.zippyshare.com/v/72796164/file.html
http://www35.zippyshare.com/v/58169533/file.html
http://www65.zippyshare.com/v/14220069/file.html
Nymphomaniac [HDRip][Castellano][2013]
10 Puntos Score: 10/10
Visitas: 2267 Favoritos: 2
Ver los usuarios que votaron...
1 Comentarios Nymphomaniac [HDRip][Castellano][2013]
Tenia tiempo sin ver una peli subida a zippyshare, a la proxima encriptarle el nombre    
Para dejar un comentario Registrate! o.. eres ya usuario? Accede!