Tarzan [BRSCR][Latino][2013]




Tarzán (con la voz de Kellan Lutz en la versión original) y Jane Porter (Spencer Locke) deben enfrentarse a un ejército de mercenarios contratados por el CEO de Greystoke Energies, el hombre que se hizo con el control de la empresa de los padres de Tarzán cuando estos murieron en un accidente de avión. El nuevo objetivo de este enemigo es destrozar parte del bosque en el que vive Tarzán para embolsarse unas ganancias multimillonarias. Y no le importará acabar con la vida de miles de animalitos y plantas, muchos de ellos en peligro de extinción.



Título: Tarzán: La leyenda cobra vida
Título original: Tarzan
Dirección: Reinhard Klooss
País: Alemania
Año: 2013
Fecha de estreno: 20/06/2014
Duración: -
Género: Animación, Aventuras, Acción
Calificación: Apta para todos los públicos
Reparto: Kellan Lutz, Robert Capron, Jaime Ray Newman, Spencer Locke, Brian Bloom, Mark Deklin, Brian Huskey
Distribuidora: eOne Films
Productora: Constantin Film Produktion, Ambient Entertainment GmbH

General
Format                                   : MPEG-4
Format profile                           : Base Media
Codec ID                                 : isom
File size                                : 549 MiB
Duration                                 : 1h 34mn
Overall bit rate mode                    : Variable
Overall bit rate                         : 815 Kbps
Writing application                      : Lavf54.63.104

Video
ID                                       : 1
Format                                   : AVC
Format/Info                              : Advanced Video Codec
Format profile                           : [email protected]
Format settings, CABAC                   : Yes
Format settings, ReFrames                : 4 frames
Codec ID                                 : avc1
Codec ID/Info                            : Advanced Video Coding
Duration                                 : 1h 34mn
Bit rate                                 : 750 Kbps
Width                                    : 720 pixels
Height                                   : 304 pixels
Display aspect ratio                     : 2.35:1
Frame rate mode                          : Constant
Frame rate                               : 23.976 fps
Color space                              : YUV
Chroma subsampling                       : 4:2:0
Bit depth                                : 8 bits
Scan type                                : Progressive
Bits/(Pixel*Frame)                       : 0.143
Stream size                              : 494 MiB (90%)
Writing library                          : x264 core 120 r2151 a3f4407
Encoding settings                        : cabac=1 / ref=3 / deblock=1:0:0 / analyse=0x3:0x113 / me=hex / subme=7 / psy=1 / psy_rd=1.00:0.00 / mixed_ref=1 / me_range=16 / chroma_me=1 / trellis=1 / 8x8dct=1 / cqm=0 / deadzone=21,11 / fast_pskip=1 / chroma_qp_offset=-2 / threads=16 / sliced_threads=0 / nr=0 / decimate=1 / interlaced=0 / bluray_compat=0 / constrained_intra=0 / bframes=3 / b_pyramid=2 / b_adapt=1 / b_bias=0 / direct=1 / weightb=1 / open_gop=0 / weightp=2 / keyint=25 / keyint_min=2 / scenecut=40 / intra_refresh=0 / rc_lookahead=25 / rc=abr / mbtree=1 / bitrate=750 / ratetol=1.0 / qcomp=0.60 / qpmin=0 / qpmax=69 / qpstep=4 / ip_ratio=1.40 / aq=1:1.00

Audio
ID                                       : 2
Format                                   : AAC
Format/Info                              : Advanced Audio Codec
Format profile                           : LC
Codec ID                                 : 40
Duration                                 : 1h 34mn
Duration_LastFrame                       : -11ms
Bit rate mode                            : Variable
Bit rate                                 : 77.8 Kbps
Maximum bit rate                         : 128 Kbps
Channel(s)                               : 2 channels
Channel positions                        : Front: L R
Sampling rate                            : 24.0 KHz
Compression mode                         : Lossy
Stream size                              : 52.4 MiB (10%)






http://www78.zippyshare.com/v/21431620/file.html
http://www7.zippyshare.com/v/82234790/file.html
http://www73.zippyshare.com/v/29893247/file.html
Tarzan [BRSCR][Latino][2013]
15 Puntos Score: 7.5/10
Visitas: 3001 Favoritos: 2
Ver los usuarios que votaron...
11 Comentarios Tarzan [BRSCR][Latino][2013]
Gracias por el aporte para mis hijos
audio final o cam amigo?
MMMUY BUENO para mi peque?
cual audio es men digan ?? y se te agradece el aporte
Cita Draco2010: Mostrar
espa?
esta genial gracias
Links caidos  
se cayeron los links los podrias resubir gracias
Cita soulcristo: Mostrar
resubido disfrutenla
El audio es CAM, el video esta de 8-9...
Igual gracias
Para dejar un comentario Registrate! o.. eres ya usuario? Accede!