Septimo [HDRip 720p][Latino][2014]




Como cada día, Marcelo (Ricardo Darín) recoge a sus hijos en el piso de su ex mujer (Belén Rueda). Como cada día juegan a ver quién llega antes: ellos bajan por las escaleras, él en el ascensor, un divertimento que a su ex pareja no le gusta. Pero cuando un día Marcelo llega el primero al piso de abajo, los niños no están. No están en ningún sitio. El miedo empieza a aflorar cuando una llamada telefónica les catapulta al horror: un secuestrador pone precio para la liberación de sus hijos. Marcelo tendrá que asumir la fragilidad de su mundo y decidir hasta dónde está dispuesto a llegar para recuperarlo.



Título: Séptimo
Título original: Séptimo
Dirección: Patxi Amézcua
País: España, Argentina
Año: 2013
Fecha de estreno: 08/11/2013
Duración: 91 min
Género: Thriller
Reparto: Ricardo Darín, Belén Rueda, Jorge D'Elía, Osvaldo Santoro, Luis Ziembrowsky
Distribuidora: 20th Century Fox
Productora: Ikiru Films, Telecinco Cinema, El Toro Productions

General
Format                                   : MPEG-4
Format profile                           : Base Media / Version 2
Codec ID                                 : mp42
File size                                : 975 MiB
Duration                                 : 1h 23mn
Overall bit rate mode                    : Variable
Overall bit rate                         : 1 631 Kbps
Encoded date                             : UTC 2014-04-21 23:18:19
Tagged date                              : UTC 2014-04-21 23:36:41
Writing application                      : DVDFab

Video
ID                                       : 1
Format                                   : AVC
Format/Info                              : Advanced Video Codec
Format profile                           : [email protected]
Format settings, CABAC                   : Yes
Format settings, ReFrames                : 1 frame
Codec ID                                 : avc1
Codec ID/Info                            : Advanced Video Coding
Duration                                 : 1h 23mn
Bit rate mode                            : Variable
Bit rate                                 : 1 500 Kbps
Width                                    : 1 280 pixels
Height                                   : 544 pixels
Display aspect ratio                     : 2.35:1
Frame rate mode                          : Constant
Frame rate                               : 25.000 fps
Color space                              : YUV
Chroma subsampling                       : 4:2:0
Bit depth                                : 8 bits
Scan type                                : Progressive
Bits/(Pixel*Frame)                       : 0.086
Stream size                              : 897 MiB (92%)
Writing library                          : x264 core
Encoded date                             : UTC 2014-04-21 23:18:19
Tagged date                              : UTC 2014-04-21 23:36:37
Color primaries                          : BT.709-5, BT.1361, IEC 61966-2-4, SMPTE RP177
Transfer characteristics                 : BT.709-5, BT.1361
Matrix coefficients                      : BT.709-5, BT.1361, IEC 61966-2-4 709, SMPTE RP177

Audio
ID                                       : 2
Format                                   : AAC
Format/Info                              : Advanced Audio Codec
Format profile                           : LC
Codec ID                                 : 40
Duration                                 : 1h 23mn
Bit rate mode                            : Variable
Bit rate                                 : 128 Kbps
Maximum bit rate                         : 203 Kbps
Channel(s)                               : 2 channels
Channel positions                        : Front: L R
Sampling rate                            : 48.0 KHz
Compression mode                         : Lossy
Stream size                              : 76.3 MiB (8%)
Encoded date                             : UTC 2014-04-21 23:18:19
Tagged date                              : UTC 2014-04-21 23:36:16






http://www2.zippyshare.com/v/43974737/file.html
http://www54.zippyshare.com/v/1806871/file.html
http://www20.zippyshare.com/v/73444811/file.html
http://www30.zippyshare.com/v/58317945/file.html
http://www44.zippyshare.com/v/15807542/file.html
Septimo [HDRip 720p][Latino][2014]
53 Puntos Score: 8.8/10
Visitas: 4221 Favoritos: 4
Ver los usuarios que votaron...
8 Comentarios Septimo [HDRip 720p][Latino][2014]
para cuando estara en 1080p???  
Cita pavaxo: Mostrar
ni idea te la debo solo subo hasta 720...
Muchas Gracias
gracias , perfectos los links
Link perfectos!

Gracias! +10
Gracias !!!!! Funcionan los links !!!!!
a fecha 15-12-2015 los links funcionan y se descargan de maravilla. Muchas Gracias por el aporte. Excelente trabajo. saludos
Para dejar un comentario Registrate! o.. eres ya usuario? Accede!