Septimo [DVDRip][Castellano][2014]




Como cada día, Marcelo (Ricardo Darín) recoge a sus hijos en el piso de su ex mujer (Belén Rueda). Como cada día juegan a ver quién llega antes: ellos bajan por las escaleras, él en el ascensor, un divertimento que a su ex pareja no le gusta. Pero cuando un día Marcelo llega el primero al piso de abajo, los niños no están. No están en ningún sitio. El miedo empieza a aflorar cuando una llamada telefónica les catapulta al horror: un secuestrador pone precio para la liberación de sus hijos. Marcelo tendrá que asumir la fragilidad de su mundo y decidir hasta dónde está dispuesto a llegar para recuperarlo.



Título: Séptimo
Título original: Séptimo
Dirección: Patxi Amézcua
País: España, Argentina
Año: 2013
Fecha de estreno: 08/11/2013
Duración: 91 min
Género: Thriller
Reparto: Ricardo Darín, Belén Rueda, Jorge D'Elía, Osvaldo Santoro, Luis Ziembrowsky
Distribuidora: 20th Century Fox
Productora: Ikiru Films, Telecinco Cinema, El Toro Productions

General
Format                                   : AVI
Format/Info                              : Audio Video Interleave
Format profile                           : OpenDML
File size                                : 1.19 GiB
Duration                                 : 1h 23mn
Overall bit rate                         : 2 030 Kbps
Movie name                               : SEPTIMO
Writing application                      : Lavf54.63.104
Original source form/Name                : SEPTIMO

Video
ID                                       : 0
Format                                   : MPEG-4 Visual
Format profile                           : Advanced [email protected]
Format settings, BVOP                    : 2
Format settings, QPel                    : No
Format settings, GMC                     : No warppoints
Format settings, Matrix                  : Default (MPEG)
Muxing mode                              : Packed bitstream
Codec ID                                 : XVID
Codec ID/Hint                            : XviD
Duration                                 : 1h 23mn
Bit rate                                 : 1 569 Kbps
Width                                    : 720 pixels
Height                                   : 316 pixels
Display aspect ratio                     : 2.25:1
Frame rate                               : 25.000 fps
Color space                              : YUV
Chroma subsampling                       : 4:2:0
Bit depth                                : 8 bits
Scan type                                : Progressive
Compression mode                         : Lossy
Bits/(Pixel*Frame)                       : 0.276
Stream size                              : 938 MiB (77%)
Writing library                          : XviD 64

Audio
ID                                       : 1
Format                                   : AC-3
Format/Info                              : Audio Coding 3
Mode extension                           : CM (complete main)
Format settings, Endianness              : Big
Codec ID                                 : 2000
Duration                                 : 1h 23mn
Bit rate mode                            : Constant
Bit rate                                 : 448 Kbps
Channel(s)                               : 6 channels
Channel positions                        : Front: L C R, Side: L R, LFE
Sampling rate                            : 48.0 KHz
Bit depth                                : 16 bits
Compression mode                         : Lossy
Stream size                              : 268 MiB (22%)
Alignment                                : Aligned on interleaves
Interleave, duration                     : 32 ms (0.80 video frame)






http://www31.zippyshare.com/v/73208939/file.html
http://www33.zippyshare.com/v/198691/file.html
http://www65.zippyshare.com/v/52419017/file.html
http://www29.zippyshare.com/v/92519954/file.html
http://www43.zippyshare.com/v/64998074/file.html
http://www6.zippyshare.com/v/49122681/file.html
http://www10.zippyshare.com/v/24801732/file.html
Septimo [DVDRip][Castellano][2014]
0 Puntos Score: 0/10
Visitas: 1316 Favoritos: 0
0 Comentarios Septimo [DVDRip][Castellano][2014]
Este post no tiene comentarios. Sea el primero!
Para dejar un comentario Registrate! o.. eres ya usuario? Accede!