Rio 2 [HDSCR][Castellano][2014]




Blu, Perla y sus pequeños, unos traviesos guacamayos, disfrutan de una vida cómoda y entretenida en Río de Janeiro, Brasil. Sin embargo, Perla cada vez tiene más claro que sus niños, pequeños pájaros salvajes, serían más felices en el Amazonas.
Aunque una vez en la selva, su nueva vida no será tan fácil como pensaban. Sus vecinos no son los ideales, Perla se reencuentra con su padre al que hace tiempo que no veía, y los pequeños Carla, Tiago y Bia deciden no volver a la gran ciudad. Por si esto fuera poco, la cacatúa Nigel vuela hacia ellos con sed de venganza.



Título: Rio 2
Título original: Rio 2
Dirección: Carlos Saldanha
País: Estados Unidos
Año: 2014
Fecha de estreno: 04/04/2014
Duración: 101 min
Género: Comedia, Animación, Aventuras
Calificación: Apta para todos los públicos
Reparto: Anne Hathaway, Leslie Mann, Jamie Foxx, Jesse Eisenberg, Jemaine Clement, Rodrigo Santoro, Jake T. Austin, Amandla Stenberg, John Leguizamo, Andy García
Web: Rio 2 | Official Movie Site | View Trailers | Games | In Theaters April 11
Distribuidora: 20th Century Fox
Productora: Twentieth Century Fox Animation, Blue Sky Studios

General
Format                                   : MPEG-4
Format profile                           : Base Media / Version 2
Codec ID                                 : mp42
File size                                : 985 MiB
Duration                                 : 1h 32mn
Overall bit rate mode                    : Variable
Overall bit rate                         : 1 490 Kbps
Encoded date                             : UTC 2014-04-24 15:38:11
Tagged date                              : UTC 2014-04-24 16:01:49
Writing application                      : DVDFab

Video
ID                                       : 1
Format                                   : AVC
Format/Info                              : Advanced Video Codec
Format profile                           : [email protected]
Format settings, CABAC                   : Yes
Format settings, ReFrames                : 1 frame
Codec ID                                 : avc1
Codec ID/Info                            : Advanced Video Coding
Duration                                 : 1h 32mn
Bit rate mode                            : Variable
Bit rate                                 : 1 359 Kbps
Width                                    : 1 280 pixels
Height                                   : 528 pixels
Display aspect ratio                     : 2.40:1
Frame rate mode                          : Constant
Frame rate                               : 25.000 fps
Color space                              : YUV
Chroma subsampling                       : 4:2:0
Bit depth                                : 8 bits
Scan type                                : Progressive
Bits/(Pixel*Frame)                       : 0.080
Stream size                              : 898 MiB (91%)
Writing library                          : x264 core
Encoded date                             : UTC 2014-04-24 15:38:11
Tagged date                              : UTC 2014-04-24 16:01:45
Color primaries                          : BT.709-5, BT.1361, IEC 61966-2-4, SMPTE RP177
Transfer characteristics                 : BT.709-5, BT.1361
Matrix coefficients                      : BT.709-5, BT.1361, IEC 61966-2-4 709, SMPTE RP177

Audio
ID                                       : 2
Format                                   : AAC
Format/Info                              : Advanced Audio Codec
Format profile                           : LC
Codec ID                                 : 40
Duration                                 : 1h 32mn
Bit rate mode                            : Variable
Bit rate                                 : 128 Kbps
Maximum bit rate                         : 154 Kbps
Channel(s)                               : 2 channels
Channel positions                        : Front: L R
Sampling rate                            : 48.0 KHz
Compression mode                         : Lossy
Stream size                              : 84.6 MiB (9%)
Encoded date                             : UTC 2014-04-24 15:38:11
Tagged date                              : UTC 2014-04-24 16:00:45






http://www57.zippyshare.com/v/86734295/file.html
http://www53.zippyshare.com/v/58235921/file.html
http://www76.zippyshare.com/v/85595141/file.html
http://www1.zippyshare.com/v/6631584/file.html
http://www56.zippyshare.com/v/16962658/file.html
Rio 2 [HDSCR][Castellano][2014]
0 Puntos Score: 0/10
Visitas: 3861 Favoritos: 1
4 Comentarios Rio 2 [HDSCR][Castellano][2014]
ola amigo me dice que los ficheros estan da?
no, no tiene nada que ver la version de winrar
el link ultimo no sirve, no se puede descargar
Para dejar un comentario Registrate! o.. eres ya usuario? Accede!