Rio 2 [HDSCR][Latino][2014]




Blu, Perla y sus pequeños, unos traviesos guacamayos, disfrutan de una vida cómoda y entretenida en Río de Janeiro, Brasil. Sin embargo, Perla cada vez tiene más claro que sus niños, pequeños pájaros salvajes, serían más felices en el Amazonas.
Aunque una vez en la selva, su nueva vida no será tan fácil como pensaban. Sus vecinos no son los ideales, Perla se reencuentra con su padre al que hace tiempo que no veía, y los pequeños Carla, Tiago y Bia deciden no volver a la gran ciudad. Por si esto fuera poco, la cacatúa Nigel vuela hacia ellos con sed de venganza.



Título: Rio 2
Título original: Rio 2
Dirección: Carlos Saldanha
País: Estados Unidos
Año: 2014
Fecha de estreno: 04/04/2014
Duración: 101 min
Género: Comedia, Animación, Aventuras
Calificación: Apta para todos los públicos
Reparto: Anne Hathaway, Leslie Mann, Jamie Foxx, Jesse Eisenberg, Jemaine Clement, Rodrigo Santoro, Jake T. Austin, Amandla Stenberg, John Leguizamo, Andy García
Web: Rio 2 | Official Movie Site | View Trailers | Games | In Theaters April 11
Distribuidora: 20th Century Fox
Productora: Twentieth Century Fox Animation, Blue Sky Studios

General
Format                                   : MPEG-4
Format profile                           : Base Media / Version 2
Codec ID                                 : mp42
File size                                : 985 MiB
Duration                                 : 1h 32mn
Overall bit rate mode                    : Variable
Overall bit rate                         : 1 490 Kbps
Encoded date                             : UTC 2014-04-24 16:02:15
Tagged date                              : UTC 2014-04-24 16:26:14
Writing application                      : DVDFab

Video
ID                                       : 1
Format                                   : AVC
Format/Info                              : Advanced Video Codec
Format profile                           : [email protected]
Format settings, CABAC                   : Yes
Format settings, ReFrames                : 1 frame
Codec ID                                 : avc1
Codec ID/Info                            : Advanced Video Coding
Duration                                 : 1h 32mn
Bit rate mode                            : Variable
Bit rate                                 : 1 359 Kbps
Width                                    : 1 280 pixels
Height                                   : 528 pixels
Display aspect ratio                     : 2.40:1
Frame rate mode                          : Constant
Frame rate                               : 25.000 fps
Color space                              : YUV
Chroma subsampling                       : 4:2:0
Bit depth                                : 8 bits
Scan type                                : Progressive
Bits/(Pixel*Frame)                       : 0.080
Stream size                              : 898 MiB (91%)
Writing library                          : x264 core
Encoded date                             : UTC 2014-04-24 16:02:15
Tagged date                              : UTC 2014-04-24 16:26:10
Color primaries                          : BT.709-5, BT.1361, IEC 61966-2-4, SMPTE RP177
Transfer characteristics                 : BT.709-5, BT.1361
Matrix coefficients                      : BT.709-5, BT.1361, IEC 61966-2-4 709, SMPTE RP177

Audio
ID                                       : 2
Format                                   : AAC
Format/Info                              : Advanced Audio Codec
Format profile                           : LC
Codec ID                                 : 40
Duration                                 : 1h 32mn
Bit rate mode                            : Variable
Bit rate                                 : 128 Kbps
Maximum bit rate                         : 147 Kbps
Channel(s)                               : 2 channels
Channel positions                        : Front: L R
Sampling rate                            : 48.0 KHz
Compression mode                         : Lossy
Stream size                              : 84.6 MiB (9%)
Language                                 : Spanish
Encoded date                             : UTC 2014-04-24 16:02:15
Tagged date                              : UTC 2014-04-24 16:25:07






http://www77.zippyshare.com/v/31837710/file.html
http://www43.zippyshare.com/v/51824949/file.html
http://www67.zippyshare.com/v/15527054/file.html
http://www54.zippyshare.com/v/54008216/file.html
http://www38.zippyshare.com/v/99226318/file.html
Rio 2 [HDSCR][Latino][2014]
10 Puntos Score: 10/10
Visitas: 9442 Favoritos: 3
Ver los usuarios que votaron...
14 Comentarios Rio 2 [HDSCR][Latino][2014]
hola esta es otra version dela ts que subieron? gracias
Cita cyber211: Mostrar
son muy diferentes puedes verificarlos en la especificacion de video y audio de cada una...
probando, por lo pronto se agradece el aporte  
copy  paste parece jajjajajaj gracias igual
ya falta menos para que tenga un poquito mas de calidad
Gracias x l aporte 8 de 10 muy bueno
ok entonces no es la misma pelicula que subieron, o sera q le dieron un formato mejor ala misma, ya la bajo
siento decir que es la misma version que hay en todas partes.... audio CAM y la misma cabeza de una persona casi al final de pelicula.... en la ultima captura se puede apreciar.....    
gracias por el aporte....
Excelente calidad, casi dvdrip
muy buena calidad de imagen y de sonido obvio no es la calidad final pero entre un puntaje de 1 a 10 le doy un 8
Descargando
Gracias por el aporte  
Gracias, se ve muy bien, sonido de cine, pero aguanta.....  g
Para dejar un comentario Registrate! o.. eres ya usuario? Accede!