Draft Day [TSHQ][VOSE][2014]




En el draft anual de la Liga Nacional de Fútbol Americano (NFL), el manager general Sonny Weaver (Kevin Costner) tiene la oportunidad de reflotar a su equipo ya que es el primero en elegir jugador. Sin embargo, deberá preguntarse si merece la pena sacrificar el día más importante de su vida por un puñado de jovencitos que aspiran a triunfar en la NFL. Los aficionados del club mirarán con lupa su elección... y le criticarán de todas formas.



Título: Draft Day
Título original: Draft Day
Dirección: Ivan Reitman
País: Estados Unidos
Año: 2014
Fecha de estreno: Próximamente
Duración: 109 min
Género: Drama, Deporte
Reparto: Kevin Costner, Jennifer Garner, Tom Welling, Sam Elliott, Terry Crews, Ellen Burstyn, Rosanna Arquette, Frank Langella, Chi McBride, Denis Leary
Distribuidora: Summit Entertainment
Productora: Summit Entertainment, Lionsgate

General
Format                                   : MPEG-4
Format profile                           : Base Media / Version 2
Codec ID                                 : mp42
File size                                : 986 MiB
Duration                                 : 1h 39mn
Overall bit rate mode                    : Variable
Overall bit rate                         : 1 383 Kbps
Encoded date                             : UTC 2014-04-20 04:08:29
Tagged date                              : UTC 2014-04-20 04:31:13
Writing application                      : DVDFab

Video
ID                                       : 1
Format                                   : AVC
Format/Info                              : Advanced Video Codec
Format profile                           : [email protected]
Format settings, CABAC                   : Yes
Format settings, ReFrames                : 1 frame
Codec ID                                 : avc1
Codec ID/Info                            : Advanced Video Coding
Duration                                 : 1h 39mn
Bit rate mode                            : Variable
Bit rate                                 : 1 251 Kbps
Width                                    : 1 280 pixels
Height                                   : 722 pixels
Display aspect ratio                     : 16:9
Frame rate mode                          : Variable
Frame rate                               : 23.976 fps
Minimum frame rate                       : 23.974 fps
Maximum frame rate                       : 23.981 fps
Color space                              : YUV
Chroma subsampling                       : 4:2:0
Bit depth                                : 8 bits
Scan type                                : Progressive
Bits/(Pixel*Frame)                       : 0.056
Stream size                              : 891 MiB (90%)
Writing library                          : x264 core
Encoded date                             : UTC 2014-04-20 04:08:29
Tagged date                              : UTC 2014-04-20 04:31:09
Color primaries                          : BT.709-5, BT.1361, IEC 61966-2-4, SMPTE RP177
Transfer characteristics                 : BT.709-5, BT.1361
Matrix coefficients                      : BT.709-5, BT.1361, IEC 61966-2-4 709, SMPTE RP177

Audio
ID                                       : 2
Format                                   : AAC
Format/Info                              : Advanced Audio Codec
Format profile                           : LC
Codec ID                                 : 40
Duration                                 : 1h 39mn
Bit rate mode                            : Variable
Bit rate                                 : 128 Kbps
Maximum bit rate                         : 155 Kbps
Channel(s)                               : 2 channels
Channel positions                        : Front: L R
Sampling rate                            : 48.0 KHz
Compression mode                         : Lossy
Stream size                              : 91.2 MiB (9%)
Encoded date                             : UTC 2014-04-20 04:08:29
Tagged date                              : UTC 2014-04-20 04:30:42






http://www33.zippyshare.com/v/29580961/file.html
http://www20.zippyshare.com/v/25837879/file.html
http://www42.zippyshare.com/v/51547885/file.html
http://www48.zippyshare.com/v/44790051/file.html
http://www63.zippyshare.com/v/63176965/file.html
Draft Day [TSHQ][VOSE][2014]
10 Puntos Score: 10/10
Visitas: 1562 Favoritos: 0
Ver los usuarios que votaron...
0 Comentarios Draft Day [TSHQ][VOSE][2014]
Este post no tiene comentarios. Sea el primero!
Para dejar un comentario Registrate! o.. eres ya usuario? Accede!