Oculus[HDTS][VOSE][2013]




Kaylie Russell (Karen Gillan) es una mujer que hará todo lo posible por demostrar la inocencia de su hermano, acusado de asesinato. Kaylie está convencida de que su hermano no cometió ese crimen por voluntad propia, sino que algo o alguien le empujó a ella. En concreto, alguna fuerza sobrenatural. Demostrarlo será complicado, pero Kaylie no es de las que se rinden fácilmente.



Título: Oculus
Título original: Oculus
Dirección: Mike Flanagan
País: Estados Unidos
Año: 2013
Fecha de estreno: Próximamente
Duración: 104 min
Género: Terror
Reparto: Katee Sackhoff, Brenton Thwaites, Rory Cochrane, James Lafferty, Kate Siegel, Miguel Sandoval, Karen Gillan
Web: www.oculus.tumblr.com
Distribuidora: Relativity Media
Productora: Blumhouse Productions, Intrepid Pictures, WWE Studios

General
Format                                   : MPEG-4
Format profile                           : Base Media / Version 2
Codec ID                                 : mp42
File size                                : 984 MiB
Duration                                 : 1h 38mn
Overall bit rate mode                    : Variable
Overall bit rate                         : 1 393 Kbps
Encoded date                             : UTC 2014-04-19 20:08:08
Tagged date                              : UTC 2014-04-19 20:32:58
Writing application                      : DVDFab

Video
ID                                       : 1
Format                                   : AVC
Format/Info                              : Advanced Video Codec
Format profile                           : [email protected]
Format settings, CABAC                   : Yes
Format settings, ReFrames                : 1 frame
Codec ID                                 : avc1
Codec ID/Info                            : Advanced Video Coding
Duration                                 : 1h 38mn
Bit rate mode                            : Variable
Bit rate                                 : 1 260 Kbps
Width                                    : 1 280 pixels
Height                                   : 720 pixels
Display aspect ratio                     : 16:9
Frame rate mode                          : Variable
Frame rate                               : 23.976 fps
Minimum frame rate                       : 23.974 fps
Maximum frame rate                       : 23.981 fps
Color space                              : YUV
Chroma subsampling                       : 4:2:0
Bit depth                                : 8 bits
Scan type                                : Progressive
Bits/(Pixel*Frame)                       : 0.057
Stream size                              : 890 MiB (90%)
Writing library                          : x264 core
Encoded date                             : UTC 2014-04-19 20:08:08
Tagged date                              : UTC 2014-04-19 20:32:54
Color primaries                          : BT.709-5, BT.1361, IEC 61966-2-4, SMPTE RP177
Transfer characteristics                 : BT.709-5, BT.1361
Matrix coefficients                      : BT.709-5, BT.1361, IEC 61966-2-4 709, SMPTE RP177

Audio
ID                                       : 2
Format                                   : AAC
Format/Info                              : Advanced Audio Codec
Format profile                           : LC
Codec ID                                 : 40
Duration                                 : 1h 38mn
Bit rate mode                            : Variable
Bit rate                                 : 128 Kbps
Maximum bit rate                         : 153 Kbps
Channel(s)                               : 2 channels
Channel positions                        : Front: L R
Sampling rate                            : 48.0 KHz
Compression mode                         : Lossy
Stream size                              : 90.4 MiB (9%)
Encoded date                             : UTC 2014-04-19 20:08:08
Tagged date                              : UTC 2014-04-19 20:32:36






http://www17.zippyshare.com/v/1772343/file.html
http://www56.zippyshare.com/v/77495387/file.html
http://www18.zippyshare.com/v/28217350/file.html
http://www28.zippyshare.com/v/22860871/file.html
http://www44.zippyshare.com/v/74655177/file.html
Oculus[HDTS][VOSE][2013]
0 Puntos Score: 0/10
Visitas: 2500 Favoritos: 1
5 Comentarios Oculus[HDTS][VOSE][2013]
Se ve buena bajando par ver que tal esta  
Gracias por el aporte.....se agradecer?
gracias por el aporte ojala luego salga en mejor calidad
muchas gracias  
Para dejar un comentario Registrate! o.. eres ya usuario? Accede!