Enemy [HDRip][VOSE][2014]




Adaptación de la novela 'El hombre duplicado' de José Saramago. Narra la historia de un profesor (Jake Gyllenhaal) que tiene una vida apacible con su esposa (Mélanie Laurent) hasta que un día, viendo una película, descubre a un actor que es idéntico a sí mismo. Entonces inicia la búsqueda obsesiva del individuo, con consecuencias inesperadas.



Título: Enemy
Título original: Enemy
Dirección: Denis Villeneuve
País: Canadá, España
Año: 2013
Fecha de estreno: 28/03/2014
Duración: 90 min
Género: Thriller
Calificación: No recomendada para menores de 12 años
Reparto: Jake Gyllenhaal, Mélanie Laurent, Sarah Gadon, Isabella Rossellini, Stephen R. Hart, Joshua Peace, Tim Post
Web: www.enemy-movie.com
Distribuidora: Alfa Pictures
Productora: Rhombus Media, Roxbury Pictures, Mecanismo Films, micro_scope

General
Format                                   : AVI
Format/Info                              : Audio Video Interleave
Format profile                           : OpenDML
File size                                : 1.09 GiB
Duration                                 : 1h 27mn
Overall bit rate                         : 1 782 Kbps
Writing application                      : Lavf52.84.0

Video
ID                                       : 0
Format                                   : MPEG-4 Visual
Codec ID                                 : FMP4
Duration                                 : 1h 27mn
Bit rate                                 : 1 636 Kbps
Width                                    : 864 pixels
Height                                   : 424 pixels
Display aspect ratio                     : 2.038
Frame rate                               : 29.970 fps
Color space                              : YUV
Chroma subsampling                       : 4:2:0
Compression mode                         : Lossy
Bits/(Pixel*Frame)                       : 0.149
Stream size                              : 1.00 GiB (92%)

Audio
ID                                       : 1
Format                                   : MPEG Audio
Format version                           : Version 1
Format profile                           : Layer 3
Mode                                     : Joint stereo
Mode extension                           : MS Stereo
Codec ID                                 : 55
Codec ID/Hint                            : MP3
Duration                                 : 1h 27mn
Bit rate mode                            : Constant
Bit rate                                 : 128 Kbps
Channel(s)                               : 2 channels
Sampling rate                            : 48.0 KHz
Compression mode                         : Lossy
Stream size                              : 80.4 MiB (7%)
Alignment                                : Aligned on interleaves
Interleave, duration                     : 24 ms (0.72 video frame)






http://www42.zippyshare.com/v/30195077/file.html
http://www49.zippyshare.com/v/10356270/file.html
http://www22.zippyshare.com/v/15601265/file.html
http://www29.zippyshare.com/v/6836492/file.html
http://www29.zippyshare.com/v/54746164/file.html
http://www38.zippyshare.com/v/97681613/file.html
Enemy [HDRip][VOSE][2014]
10 Puntos Score: 10/10
Visitas: 2014 Favoritos: 6
Ver los usuarios que votaron...
5 Comentarios Enemy [HDRip][VOSE][2014]
Sinopsis de robocop.
la sinopsis es de robocop saludos
arreglado gracias por avisar
Para dejar un comentario Registrate! o.. eres ya usuario? Accede!