Enemy [BRSCR][Castellano][2014]




Adaptación de la novela 'El hombre duplicado' de José Saramago. Narra la historia de un profesor (Jake Gyllenhaal) que tiene una vida apacible con su esposa (Mélanie Laurent) hasta que un día, viendo una película, descubre a un actor que es idéntico a sí mismo. Entonces inicia la búsqueda obsesiva del individuo, con consecuencias inesperadas.



Título: Enemy
Título original: Enemy
Dirección: Denis Villeneuve
País: Canadá, España
Año: 2013
Fecha de estreno: 28/03/2014
Duración: 90 min
Género: Thriller
Calificación: No recomendada para menores de 12 años
Reparto: Jake Gyllenhaal, Mélanie Laurent, Sarah Gadon, Isabella Rossellini, Stephen R. Hart, Joshua Peace, Tim Post
Web: www.enemy-movie.com
Distribuidora: Alfa Pictures
Productora: Rhombus Media, Roxbury Pictures, Mecanismo Films, micro_scope

General
Format                                   : MPEG-4
Format profile                           : Base Media
Codec ID                                 : isom
File size                                : 555 MiB
Duration                                 : 1h 30mn
Overall bit rate mode                    : Variable
Overall bit rate                         : 855 Kbps
Writing application                      : Lavf54.63.104

Video
ID                                       : 1
Format                                   : AVC
Format/Info                              : Advanced Video Codec
Format profile                           : [email protected]
Format settings, CABAC                   : Yes
Format settings, ReFrames                : 4 frames
Codec ID                                 : avc1
Codec ID/Info                            : Advanced Video Coding
Duration                                 : 1h 30mn
Bit rate                                 : 750 Kbps
Width                                    : 720 pixels
Height                                   : 304 pixels
Display aspect ratio                     : 2.35:1
Frame rate mode                          : Constant
Frame rate                               : 23.976 fps
Color space                              : YUV
Chroma subsampling                       : 4:2:0
Bit depth                                : 8 bits
Scan type                                : Progressive
Bits/(Pixel*Frame)                       : 0.143
Stream size                              : 499 MiB (90%)
Writing library                          : x264 core 120 r2151 a3f4407
Encoding settings                        : cabac=1 / ref=3 / deblock=1:0:0 / analyse=0x3:0x113 / me=hex / subme=7 / psy=1 / psy_rd=1.00:0.00 / mixed_ref=1 / me_range=16 / chroma_me=1 / trellis=1 / 8x8dct=1 / cqm=0 / deadzone=21,11 / fast_pskip=1 / chroma_qp_offset=-2 / threads=16 / sliced_threads=0 / nr=0 / decimate=1 / interlaced=0 / bluray_compat=0 / constrained_intra=0 / bframes=3 / b_pyramid=2 / b_adapt=1 / b_bias=0 / direct=1 / weightb=1 / open_gop=0 / weightp=2 / keyint=25 / keyint_min=2 / scenecut=40 / intra_refresh=0 / rc_lookahead=25 / rc=abr / mbtree=1 / bitrate=750 / ratetol=1.0 / qcomp=0.60 / qpmin=0 / qpmax=69 / qpstep=4 / ip_ratio=1.40 / aq=1:1.00

Audio
ID                                       : 2
Format                                   : AAC
Format/Info                              : Advanced Audio Codec
Format profile                           : LC
Codec ID                                 : 40
Duration                                 : 1h 30mn
Duration_LastFrame                       : -13ms
Bit rate mode                            : Variable
Bit rate                                 : 82.8 Kbps
Maximum bit rate                         : 128 Kbps
Channel(s)                               : 2 channels
Channel positions                        : Front: L R
Sampling rate                            : 24.0 KHz
Compression mode                         : Lossy
Stream size                              : 53.8 MiB (10%)






http://www34.zippyshare.com/v/58566328/file.html
http://www14.zippyshare.com/v/67059768/file.html
http://www19.zippyshare.com/v/28479205/file.html
Enemy [BRSCR][Castellano][2014]
0 Puntos Score: 0/10
Visitas: 853 Favoritos: 0
1 Comentarios Enemy [BRSCR][Castellano][2014]
gracias, se ve bien, ten cuidado con la sinopsis un peque?
Para dejar un comentario Registrate! o.. eres ya usuario? Accede!