Oops.. Este post tiene los enlaces eliminados!

Identi revisa las denuncias de los usuarios en busca de enlaces eliminados que no dejan descargar los archivos, este mensaje te informa que este post que estas viendo tiene los enlaces eliminados.

Usa el Buscador

Por favor, te recomendamos que uses el buscador para encontrar más alternativas.

The Legend of Hercules[HDRip 720p][Latino][2014]

  • Categoría: Reciclaje
  • Publicado hace más de 2 años



Estamos en la Antigua Grecia, en el año 1200 antes de Cristo. La reina Alcmena (Roxanne McKee) ha sucumbido al poder sexual de Zeus y ha dado a luz a un hijo llamado Hércules cuya misión es devolver la paz a la tierra donde ha nacido. Pero Hércules no es consciente de su destino y sólo pretende una cosa: el amor de Hebe (Gaia Weiss), princesa de Creta, que está a punto de casarse con su propio hermano. Llegado el momento, Hércules deberá escoger entre salvar al mundo o seguir los instintos de su corazón. Mitología, pasión y sacrificio se dan la mano en esta cinta protagonizada por el ex miembro de 'La Saga Crepúsculo' Kellan Lutz.



Título: Hércules: El origen de la leyenda
Título original: The Legend of Hercules
Dirección: Renny Harlin
País: Estados Unidos
Año: 2014
Fecha de estreno: 24/01/2014
Duración: 99 min
Género: Aventuras, Acción
Reparto: Kellan Lutz, Gaia Weiss, Scott Adkins, Roxanne McKee, Jukka Hilden, Rade Serbedzija
Web: THE LEGEND OF HERCULES | Official Site
Distribuidora: DeA Planeta Home Entertainment
Productora: Millennium Films

General
Format                                   : Matroska
Format version                           : Version 4 / Version 2
File size                                : 825 MiB
Duration                                 : 1h 38mn
Overall bit rate                         : 1 168 Kbps
Encoded date                             : UTC 2014-04-20 17:08:47
Writing application                      : mkvmerge v6.9.1 ('Blue Panther') 64bit built on Apr 18 2014 18:23:38
Writing library                          : libebml v1.3.0 + libmatroska v1.4.1

Video
ID                                       : 1
Format                                   : AVC
Format/Info                              : Advanced Video Codec
Format profile                           : [email protected]
Format settings, CABAC                   : Yes
Format settings, ReFrames                : 4 frames
Codec ID                                 : V_MPEG4/ISO/AVC
Duration                                 : 1h 38mn
Bit rate                                 : 975 Kbps
Width                                    : 1 280 pixels
Height                                   : 538 pixels
Display aspect ratio                     : 2.40:1
Frame rate                               : 23.976 fps
Color space                              : YUV
Chroma subsampling                       : 4:2:0
Bit depth                                : 8 bits
Scan type                                : Progressive
Bits/(Pixel*Frame)                       : 0.059
Stream size                              : 673 MiB (82%)
Writing library                          : x264 core 135 r2 f0c1c53
Encoding settings                        : cabac=1 / ref=4 / deblock=1:-1:-1 / analyse=0x3:0x133 / me=umh / subme=9 / psy=1 / psy_rd=1.00:0.15 / mixed_ref=1 / me_range=24 / chroma_me=1 / trellis=2 / 8x8dct=1 / cqm=0 / deadzone=21,11 / fast_pskip=0 / chroma_qp_offset=-3 / threads=18 / lookahead_threads=1 / sliced_threads=0 / nr=0 / decimate=1 / interlaced=0 / bluray_compat=0 / constrained_intra=0 / bframes=3 / b_pyramid=2 / b_adapt=2 / b_bias=0 / direct=3 / weightb=1 / open_gop=0 / weightp=2 / keyint=250 / keyint_min=23 / scenecut=40 / intra_refresh=0 / rc_lookahead=60 / rc=2pass / mbtree=1 / bitrate=975 / ratetol=1.0 / qcomp=0.60 / qpmin=0 / qpmax=69 / qpstep=4 / cplxblur=20.0 / qblur=0.5 / vbv_maxrate=31250 / vbv_bufsize=31250 / nal_hrd=none / ip_ratio=1.40 / aq=1:1.00
Default                                  : Yes
Forced                                   : No
Color primaries                          : BT.709-5, BT.1361, IEC 61966-2-4, SMPTE RP177
Matrix coefficients                      : BT.709-5, BT.1361, IEC 61966-2-4 709, SMPTE RP177

Audio
ID                                       : 2
Format                                   : AC-3
Format/Info                              : Audio Coding 3
Format profile                           : Dolby Digital
Mode extension                           : CM (complete main)
Format settings, Endianness              : Big
Codec ID                                 : A_AC3
Duration                                 : 1h 38mn
Bit rate mode                            : Constant
Bit rate                                 : 192 Kbps
Channel(s)                               : 2 channels
Channel positions                        : Front: L R
Sampling rate                            : 48.0 KHz
Bit depth                                : 16 bits
Compression mode                         : Lossy
Stream size                              : 135 MiB (16%)
Title                                    : LATINO
Language                                 : Spanish
Default                                  : Yes
Forced                                   : No






http://www65.zippyshare.com/v/69770563/file.html
http://www41.zippyshare.com/v/70506472/file.html
http://www29.zippyshare.com/v/69744900/file.html
http://www29.zippyshare.com/v/98279162/file.html
http://www9.zippyshare.com/v/62785580/file.html
The Legend of Hercules[HDRip 720p][Latino][2014]
1 Puntos Score: 1/10
Visitas: 1632 Favoritos: 1
Ver los usuarios que votaron...
3 Comentarios The Legend of Hercules[HDRip 720p][Latino][2014]
esta es la peli del 2014? me parecio re bizarra
Links caidos!!!
Para dejar un comentario Registrate! o.. eres ya usuario? Accede!