Sabotage [TSHQ][VOSE][2014]




Miembros de élite de la agencia antidroga de los Estados Unidos se ven envueltos en una emboscada cuando inician el asalto al cuartel general de uno de los narcotraficantes más peligrosos del mundo. Uno a uno, los soldados van cayendo que sin que sus superiores puedan remediarlo. Ahora toda la responsabilidad recae en el veterano John 'Breacher' Wharton (Arnold Schwarzenegger). Y será él mismo quien entre en acción para restablecer el orden y la ley. A su manera.



Título: Sabotage
Título original: Sabotage
Dirección: David Ayer
País: Estados Unidos
Año: 2014
Fecha de estreno: Próximamente
Duración: 109 min
Género: Criminal, Drama, Acción
Reparto: Arnold Schwarzenegger, Sam Worthington, Malin Akerman, Mireille Enos, Joe Manganiello, Harold Perrineau, Josh Holloway, Terrence Howard, Olivia Williams, Max Martini
Distribuidora: No disponible
Productora: Albert S. Ruddy Productions, Crave Films, QED International, Roth Films, Open Road Films (II)

General
Format                                   : MPEG-4
Format profile                           : Base Media
Codec ID                                 : isom
File size                                : 616 MiB
Duration                                 : 1h 43mn
Overall bit rate mode                    : Variable
Overall bit rate                         : 830 Kbps
Writing application                      : Lavf54.63.104

Video
ID                                       : 1
Format                                   : AVC
Format/Info                              : Advanced Video Codec
Format profile                           : [email protected]
Format settings, CABAC                   : Yes
Format settings, ReFrames                : 4 frames
Codec ID                                 : avc1
Codec ID/Info                            : Advanced Video Coding
Duration                                 : 1h 43mn
Bit rate                                 : 750 Kbps
Width                                    : 720 pixels
Height                                   : 384 pixels
Display aspect ratio                     : 1.85:1
Frame rate mode                          : Constant
Frame rate                               : 29.970 fps
Color space                              : YUV
Chroma subsampling                       : 4:2:0
Bit depth                                : 8 bits
Scan type                                : Progressive
Bits/(Pixel*Frame)                       : 0.091
Stream size                              : 550 MiB (89%)
Writing library                          : x264 core 120 r2151 a3f4407
Encoding settings                        : cabac=1 / ref=3 / deblock=1:0:0 / analyse=0x3:0x113 / me=hex / subme=7 / psy=1 / psy_rd=1.00:0.00 / mixed_ref=1 / me_range=16 / chroma_me=1 / trellis=1 / 8x8dct=1 / cqm=0 / deadzone=21,11 / fast_pskip=1 / chroma_qp_offset=-2 / threads=16 / sliced_threads=0 / nr=0 / decimate=1 / interlaced=0 / bluray_compat=0 / constrained_intra=0 / bframes=3 / b_pyramid=2 / b_adapt=1 / b_bias=0 / direct=1 / weightb=1 / open_gop=0 / weightp=2 / keyint=25 / keyint_min=2 / scenecut=40 / intra_refresh=0 / rc_lookahead=25 / rc=abr / mbtree=1 / bitrate=750 / ratetol=1.0 / qcomp=0.60 / qpmin=0 / qpmax=69 / qpstep=4 / ip_ratio=1.40 / aq=1:1.00

Audio
ID                                       : 2
Format                                   : AAC
Format/Info                              : Advanced Audio Codec
Format profile                           : LC
Codec ID                                 : 40
Duration                                 : 1h 43mn
Duration_LastFrame                       : -16ms
Bit rate mode                            : Variable
Bit rate                                 : 82.7 Kbps
Maximum bit rate                         : 128 Kbps
Channel(s)                               : 2 channels
Channel positions                        : Front: L R
Sampling rate                            : 24.0 KHz
Compression mode                         : Lossy
Stream size                              : 61.4 MiB (10%)






http://www30.zippyshare.com/v/57133310/file.html
http://www42.zippyshare.com/v/91728350/file.html
http://www68.zippyshare.com/v/49614391/file.html
http://www1.zippyshare.com/v/94104761/file.html
Sabotage [TSHQ][VOSE][2014]
0 Puntos Score: 0/10
Visitas: 1335 Favoritos: 1
1 Comentarios Sabotage [TSHQ][VOSE][2014]
DE LAS ULTIMAS PELICULAS  DE ACCION DEL GOBERNAITOR
Para dejar un comentario Registrate! o.. eres ya usuario? Accede!