Robocop [HDSCR][VOSE][2014]




Este remake de 'RoboCop' se sitúa en la Detroit del año 2028, que está controlada por la multinacional robótica OmniCorp. Los drones que se fabrican allí se utilizan por el ejército, lo que reporta millones de dólares a la empresa. Ahora, OmniCorp tiene la ocasión de utilizar esta polémica tecnología para una buena causa: convertir en un robot a un hombre que quedó amputado y desfigurado después de un brutal asalto (Joel Kinnaman). Pero cuando OmniCorp decide sacar rédito de su invento, el héroe tomará su propio camino y perseguirá el objetivo de hacer justicia con sus propios métodos.



Título: RoboCop
Título original: RoboCop
Dirección: José Padilha
País: Estados Unidos
Año: 2014
Fecha de estreno: 14/02/2014
Duración: 118 min
Género: Acción, Ciencia ficción
Calificación: No recomendada para menores de 12 años
Reparto: Joel Kinnaman, Gary Oldman, Michael Keaton, Samuel L. Jackson, Jay Baruchel, Abbie Cornish, Jackie Earle Haley, Jennifer Ehle, Marianne Jean-Baptiste
Web: RoboCop | Official Movie Site | Sony Pictures
Distribuidora: Sony Pictures
Productora: Metro-Goldwyn-Mayer (MGM), Columbia Pictures, Strike Entertainment

General
Format                                   : MPEG-4
Format profile                           : Base Media / Version 2
Codec ID                                 : mp42
File size                                : 988 MiB
Duration                                 : 1h 48mn
Overall bit rate mode                    : Variable
Overall bit rate                         : 1 275 Kbps
Encoded date                             : UTC 2014-04-17 05:56:21
Tagged date                              : UTC 2014-04-17 06:19:30
Writing application                      : DVDFab

Video
ID                                       : 1
Format                                   : AVC
Format/Info                              : Advanced Video Codec
Format profile                           : [email protected]
Format settings, CABAC                   : Yes
Format settings, ReFrames                : 1 frame
Format settings, GOP                     : M=1, N=24
Codec ID                                 : avc1
Codec ID/Info                            : Advanced Video Coding
Duration                                 : 1h 48mn
Bit rate mode                            : Variable
Bit rate                                 : 1 144 Kbps
Width                                    : 1 280 pixels
Height                                   : 464 pixels
Display aspect ratio                     : 2.759
Frame rate mode                          : Constant
Frame rate                               : 29.970 fps
Color space                              : YUV
Chroma subsampling                       : 4:2:0
Bit depth                                : 8 bits
Scan type                                : Progressive
Bits/(Pixel*Frame)                       : 0.064
Stream size                              : 886 MiB (90%)
Writing library                          : x264 core
Encoded date                             : UTC 2014-04-17 05:56:21
Tagged date                              : UTC 2014-04-17 06:19:26
Color primaries                          : BT.709-5, BT.1361, IEC 61966-2-4, SMPTE RP177
Transfer characteristics                 : BT.709-5, BT.1361
Matrix coefficients                      : BT.709-5, BT.1361, IEC 61966-2-4 709, SMPTE RP177

Audio
ID                                       : 2
Format                                   : AAC
Format/Info                              : Advanced Audio Codec
Format profile                           : LC
Codec ID                                 : 40
Duration                                 : 1h 48mn
Bit rate mode                            : Variable
Bit rate                                 : 128 Kbps
Maximum bit rate                         : 181 Kbps
Channel(s)                               : 2 channels
Channel positions                        : Front: L R
Sampling rate                            : 48.0 KHz
Compression mode                         : Lossy
Stream size                              : 99.1 MiB (10%)
Language                                 : English
Encoded date                             : UTC 2014-04-17 05:56:21
Tagged date                              : UTC 2014-04-17 06:18:29






http://www45.zippyshare.com/v/58833421/file.html
http://www66.zippyshare.com/v/38873272/file.html
http://www75.zippyshare.com/v/44065346/file.html
http://www22.zippyshare.com/v/92991803/file.html
http://www47.zippyshare.com/v/31574104/file.html
Robocop [HDSCR][VOSE][2014]
0 Puntos Score: 0/10
Visitas: 1516 Favoritos: 0
3 Comentarios Robocop [HDSCR][VOSE][2014]
gracias.tiene mas calidad que las otras que circulan
zippyshare una mierda de servidor....
Tiene mejor calidad que las otras que circulan, rara vez salen letras orientales pero lo malo es que los subt?
Para dejar un comentario Registrate! o.. eres ya usuario? Accede!