Robocop [HDSCR][Castellano][2014]




Este remake de 'RoboCop' se sitúa en la Detroit del año 2028, que está controlada por la multinacional robótica OmniCorp. Los drones que se fabrican allí se utilizan por el ejército, lo que reporta millones de dólares a la empresa. Ahora, OmniCorp tiene la ocasión de utilizar esta polémica tecnología para una buena causa: convertir en un robot a un hombre que quedó amputado y desfigurado después de un brutal asalto (Joel Kinnaman). Pero cuando OmniCorp decide sacar rédito de su invento, el héroe tomará su propio camino y perseguirá el objetivo de hacer justicia con sus propios métodos.



Título: RoboCop
Título original: RoboCop
Dirección: José Padilha
País: Estados Unidos
Año: 2014
Fecha de estreno: 14/02/2014
Duración: 118 min
Género: Acción, Ciencia ficción
Calificación: No recomendada para menores de 12 años
Reparto: Joel Kinnaman, Gary Oldman, Michael Keaton, Samuel L. Jackson, Jay Baruchel, Abbie Cornish, Jackie Earle Haley, Jennifer Ehle, Marianne Jean-Baptiste
Web: RoboCop | Official Movie Site | Sony Pictures
Distribuidora: Sony Pictures
Productora: Metro-Goldwyn-Mayer (MGM), Columbia Pictures, Strike Entertainment

General
Format                                   : MPEG-4
Format profile                           : Base Media / Version 2
Codec ID                                 : mp42
File size                                : 987 MiB
Duration                                 : 1h 48mn
Overall bit rate mode                    : Variable
Overall bit rate                         : 1 274 Kbps
Encoded date                             : UTC 2014-04-17 06:48:06
Tagged date                              : UTC 2014-04-17 07:11:24
Writing application                      : DVDFab

Video
ID                                       : 1
Format                                   : AVC
Format/Info                              : Advanced Video Codec
Format profile                           : [email protected]
Format settings, CABAC                   : Yes
Format settings, ReFrames                : 1 frame
Format settings, GOP                     : M=1, N=24
Codec ID                                 : avc1
Codec ID/Info                            : Advanced Video Coding
Duration                                 : 1h 48mn
Bit rate mode                            : Variable
Bit rate                                 : 1 143 Kbps
Width                                    : 1 280 pixels
Height                                   : 464 pixels
Display aspect ratio                     : 2.759
Frame rate mode                          : Constant
Frame rate                               : 29.970 fps
Color space                              : YUV
Chroma subsampling                       : 4:2:0
Bit depth                                : 8 bits
Scan type                                : Progressive
Bits/(Pixel*Frame)                       : 0.064
Stream size                              : 885 MiB (90%)
Writing library                          : x264 core
Encoded date                             : UTC 2014-04-17 06:48:06
Tagged date                              : UTC 2014-04-17 07:11:20
Color primaries                          : BT.709-5, BT.1361, IEC 61966-2-4, SMPTE RP177
Transfer characteristics                 : BT.709-5, BT.1361
Matrix coefficients                      : BT.709-5, BT.1361, IEC 61966-2-4 709, SMPTE RP177

Audio
ID                                       : 2
Format                                   : AAC
Format/Info                              : Advanced Audio Codec
Format profile                           : LC
Codec ID                                 : 40
Duration                                 : 1h 48mn
Bit rate mode                            : Variable
Bit rate                                 : 128 Kbps
Maximum bit rate                         : 163 Kbps
Channel(s)                               : 2 channels
Channel positions                        : Front: L R
Sampling rate                            : 48.0 KHz
Compression mode                         : Lossy
Stream size                              : 99.1 MiB (10%)
Language                                 : Spanish
Encoded date                             : UTC 2014-04-17 06:48:06
Tagged date                              : UTC 2014-04-17 07:10:23






http://www23.zippyshare.com/v/26398192/file.html
http://www8.zippyshare.com/v/40509554/file.html
http://www44.zippyshare.com/v/61943885/file.html
http://www44.zippyshare.com/v/74893101/file.html
http://www34.zippyshare.com/v/61317896/file.html]
Robocop [HDSCR][Castellano][2014]
10 Puntos Score: 10/10
Visitas: 1039 Favoritos: 0
Ver los usuarios que votaron...
4 Comentarios Robocop [HDSCR][Castellano][2014]
espero que haya mejorado el sonido , gracias por el aporte
Cita geopard: Mostrar
yo tmb espero para que no se quejen tanto jejejeje de nada
continua con aquellas letras chinasss???? o ya no xf
Cita stacaraca: Mostrar
no la e visto la verdad... pero en las capturas me muestra que no salen las letras chinas
Para dejar un comentario Registrate! o.. eres ya usuario? Accede!