Pompeya [TSHQ][Castellano][2014]




Un esclavo convertido en gladiador se encuentra a sí mismo en una carrera contra el tiempo para salvar a su verdadero amor, quien se ha prometido con un corrupto senador romano. Cuando el Monte Vesubio entre en erupción, deberá luchar para salvar a su amada mientras Pompeya se va derrumbando a su alrededor.



Título: Pompeya
Título original: Pompeii
Dirección: Paul W.S. Anderson
País: Estados Unidos, Alemania
Año: 2014
Fecha de estreno: 25/04/2014
Duración: -
Género: Drama, Aventuras, Acción
Reparto: Emily Browning, Kit Harington, Kiefer Sutherland, Jared Harris, Carrie-Anne Moss, Adewale Akinnuoye-Agbaje, Jessica Lucas
Distribuidora: eOne Films
Productora: Constantin Film Produktion, Don Carmody Productions

General
Format                                   : AVI
Format/Info                              : Audio Video Interleave
File size                                : 1.11 GiB
Duration                                 : 1h 33mn
Overall bit rate                         : 1 706 Kbps
Writing application                      : VirtualDubMod 1.5.10.2 (build 2540/release)
Writing library                          : VirtualDubMod build 2540/release

Video
ID                                       : 0
Format                                   : MPEG-4 Visual
Format profile                           : Advanced [email protected]
Format settings, BVOP                    : 2
Format settings, QPel                    : No
Format settings, GMC                     : No warppoints
Format settings, Matrix                  : Default (H.263)
Muxing mode                              : Packed bitstream
Codec ID                                 : XVID
Codec ID/Hint                            : XviD
Duration                                 : 1h 33mn
Bit rate                                 : 1 502 Kbps
Width                                    : 720 pixels
Height                                   : 304 pixels
Display aspect ratio                     : 2.35:1
Frame rate                               : 29.970 fps
Color space                              : YUV
Chroma subsampling                       : 4:2:0
Bit depth                                : 8 bits
Scan type                                : Progressive
Compression mode                         : Lossy
Bits/(Pixel*Frame)                       : 0.229
Stream size                              : 1 000 MiB (88%)
Writing library                          : XviD 64

Audio
ID                                       : 1
Format                                   : MPEG Audio
Format version                           : Version 1
Format profile                           : Layer 3
Codec ID                                 : 55
Codec ID/Hint                            : MP3
Duration                                 : 1h 33mn
Bit rate mode                            : Constant
Bit rate                                 : 192 Kbps
Channel(s)                               : 2 channels
Sampling rate                            : 44.1 KHz
Compression mode                         : Lossy
Stream size                              : 128 MiB (11%)
Alignment                                : Split accross interleaves
Interleave, duration                     : 33 ms (1.00 video frame)
Interleave, preload duration             : 500 ms






http://www49.zippyshare.com/v/56013769/file.html
http://www50.zippyshare.com/v/29815150/file.html
http://www20.zippyshare.com/v/43262651/file.html
http://www8.zippyshare.com/v/99498837/file.html
http://www24.zippyshare.com/v/66941295/file.html
http://www38.zippyshare.com/v/28947369/file.html
Pompeya [TSHQ][Castellano][2014]
0 Puntos Score: 0/10
Visitas: 1595 Favoritos: 3
2 Comentarios Pompeya [TSHQ][Castellano][2014]
Gracias por la subida
buena calidad para ser de cine gracias  
Para dejar un comentario Registrate! o.. eres ya usuario? Accede!