A Haunted House 2 [CAM][VOSE][2014]




Tras perder a su amada Kisha (Essence Atkins) en un accidente de coche, Malcolm (Marlon Wayans) decide empezar una nueva vida casándose con Megan (Jaime Pressly), madre de dos hijos. Cuando las cosas vuelven a ir hacia el camino de lo paranormal, poniendo en peligro tanto a los niños como a la mansión en la que duermen, Malcolm empieza a temer que ocurrirá lo que finalmente ocurre: que el fantasma de Kisha también se muda a su vecindario.



Título: A Haunted House 2
Título original: A Haunted House 2
Dirección: Michael Tiddes
País: Estados Unidos
Año: 2014
Fecha de estreno: Próximamente
Duración: 86 min
Género: Comedia, Terror
Reparto: Marlon Wayans, Jaime Pressly, Essence Atkins, Gabriel Iglesias, Missi Pyle, Ashley Rickards, Affion Crockett, Rick Overton, Dave Sheridan, Cedric the Entertainer
Web: www.ahauntedhouse2film.com
Distribuidora: No disponible
Productora: Wayans Bros. Entertainment, Automatik Entertainment, IM Global Octane

General
Format                                   : AVI
Format/Info                              : Audio Video Interleave
File size                                : 1 002 MiB
Duration                                 : 1h 20mn
Overall bit rate                         : 1 745 Kbps
Writing application                      : Lavf52.84.0

Video
ID                                       : 0
Format                                   : MPEG-4 Visual
Codec ID                                 : FMP4
Duration                                 : 1h 20mn
Bit rate                                 : 1 603 Kbps
Width                                    : 864 pixels
Height                                   : 416 pixels
Display aspect ratio                     : 2.077
Frame rate                               : 29.970 fps
Color space                              : YUV
Chroma subsampling                       : 4:2:0
Compression mode                         : Lossy
Bits/(Pixel*Frame)                       : 0.149
Stream size                              : 920 MiB (92%)

Audio
ID                                       : 1
Format                                   : MPEG Audio
Format version                           : Version 1
Format profile                           : Layer 3
Mode                                     : Joint stereo
Mode extension                           : MS Stereo
Codec ID                                 : 55
Codec ID/Hint                            : MP3
Duration                                 : 1h 20mn
Bit rate mode                            : Constant
Bit rate                                 : 128 Kbps
Channel(s)                               : 2 channels
Sampling rate                            : 48.0 KHz
Compression mode                         : Lossy
Stream size                              : 73.5 MiB (7%)
Alignment                                : Aligned on interleaves
Interleave, duration                     : 24 ms (0.72 video frame)
Interleave, preload duration             : 24 ms
Writing library                          : LAME3.98.4






http://www62.zippyshare.com/v/88091291/file.html
http://www71.zippyshare.com/v/54461902/file.html
http://www68.zippyshare.com/v/57822493/file.html
http://www44.zippyshare.com/v/93622042/file.html
http://www41.zippyshare.com/v/55557434/file.html
http://www5.zippyshare.com/v/98698651/file.html
A Haunted House 2 [CAM][VOSE][2014]
0 Puntos Score: 0/10
Visitas: 1535 Favoritos: 1
0 Comentarios A Haunted House 2 [CAM][VOSE][2014]
Este post no tiene comentarios. Sea el primero!
Para dejar un comentario Registrate! o.. eres ya usuario? Accede!