Devils Due [HDRip 720p][VOSE][2014]




Todo comienza con la luna de miel celebrada por una pareja de recién casados. Durante estos días de ardiente felicidad, la mujer se queda embarazada. El marido, al poder vivir esta oportunidad, decide grabar todo el embarazo para el recuerdo. Les comunican que serán padres antes de tiempo debido a la rápida gestación del feto. Poco a poco, la mujer va entrando en un estado de nervios y desesperación nunca vistos durante la gestación...



Título: El heredero del diablo
Título original: Devil's Due
Dirección: Matt Bettinelli-Olpin
País: Estados Unidos
Año: 2014
Fecha de estreno: 25/04/2014
Duración: 89 min
Género: Terror
Calificación: No recomendada para menores de 16 años
Reparto: Robert Belushi, Catherine Kresge, Aimee Carrero, Zach Gilford, Allison Miller, Sam Anderson, Vanessa Ray
Distribuidora: 20th Century Fox
Productora: Twentieth Century Fox, Davis Entertainment

General
Format                                   : MPEG-4
Format profile                           : Base Media / Version 2
Codec ID                                 : mp42
File size                                : 977 MiB
Duration                                 : 1h 29mn
Overall bit rate mode                    : Variable
Overall bit rate                         : 1 529 Kbps
Encoded date                             : UTC 2014-04-16 02:40:48
Tagged date                              : UTC 2014-04-16 03:01:58
Writing application                      : DVDFab

Video
ID                                       : 1
Format                                   : AVC
Format/Info                              : Advanced Video Codec
Format profile                           : [email protected]
Format settings, CABAC                   : Yes
Format settings, ReFrames                : 1 frame
Codec ID                                 : avc1
Codec ID/Info                            : Advanced Video Coding
Duration                                 : 1h 29mn
Bit rate mode                            : Variable
Bit rate                                 : 1 398 Kbps
Width                                    : 1 280 pixels
Height                                   : 688 pixels
Display aspect ratio                     : 1.85:1
Frame rate mode                          : Constant
Frame rate                               : 24.000 fps
Color space                              : YUV
Chroma subsampling                       : 4:2:0
Bit depth                                : 8 bits
Scan type                                : Progressive
Bits/(Pixel*Frame)                       : 0.066
Stream size                              : 893 MiB (91%)
Writing library                          : x264 core
Encoded date                             : UTC 2014-04-16 02:40:48
Tagged date                              : UTC 2014-04-16 03:01:54
Color primaries                          : BT.709-5, BT.1361, IEC 61966-2-4, SMPTE RP177
Transfer characteristics                 : BT.709-5, BT.1361
Matrix coefficients                      : BT.709-5, BT.1361, IEC 61966-2-4 709, SMPTE RP177

Audio
ID                                       : 2
Format                                   : AAC
Format/Info                              : Advanced Audio Codec
Format profile                           : LC
Codec ID                                 : 40
Duration                                 : 1h 29mn
Bit rate mode                            : Variable
Bit rate                                 : 128 Kbps
Maximum bit rate                         : 255 Kbps
Channel(s)                               : 2 channels
Channel positions                        : Front: L R
Sampling rate                            : 48.0 KHz
Compression mode                         : Lossy
Stream size                              : 81.7 MiB (8%)
Encoded date                             : UTC 2014-04-16 02:40:48
Tagged date                              : UTC 2014-04-16 03:01:42






http://www19.zippyshare.com/v/86484140/file.html
http://www74.zippyshare.com/v/80077507/file.html
http://www54.zippyshare.com/v/17542719/file.html
http://www77.zippyshare.com/v/22151956/file.html
http://www55.zippyshare.com/v/32482967/file.html
Devils Due [HDRip 720p][VOSE][2014]
0 Puntos Score: 0/10
Visitas: 1735 Favoritos: 0
5 Comentarios Devils Due [HDRip 720p][VOSE][2014]
Bajando. Gracias p?
A ver que tal...
Gracias
se murieron los links  
Cita GibranK: Mostrar
resubido
Para dejar un comentario Registrate! o.. eres ya usuario? Accede!