The Amazing Spiderman 2 [TSHQ][VOSE][2014]




Tobey Marshall (Aaron Paul) es un humilde mecánico que intenta sacar adelante su taller de reparaciones de la mejor manera posible. Como el dinero no le llega, participa en carreras ilegales al volante de coches clásicos cuyos motores han sido trucados. Cuando está a punto de saldar sus deudas, el ex piloto de NASCAR Dino Brewster (Dominic Cooper) le delata. Tobey pasa dos años en la cárcel. Cuando sale, sólo piensa en vengarse de Dino. Pero para ello tendrá que recorrer los Estados Unidos de costa a costa, en una contrarreloj muy peligrosa porque la policía irá siempre pisándole los talones.



Título: The Amazing Spider-Man 2: El poder de Electro
Título original: The Amazing Spider-Man 2
Dirección: Marc Webb
País: Estados Unidos
Año: 2014
Fecha de estreno: 16/04/2014
Duración: 142 min
Género: Aventuras, Acción, Fantástico
Calificación: No recomendada para menores de 7 años
Reparto: Emma Stone, Andrew Garfield, Dane DeHaan, Jamie Foxx, Martin Sheen, Paul Giamatti, Felicity Jones, Colm Feore, Sally Field, Chris Cooper
Web: www.theamazingspiderman.com/site/
Distribuidora: Sony Pictures
Productora: Marvel Studios

General
Format                                   : AVI
Format/Info                              : Audio Video Interleave
File size                                : 932 MiB
Duration                                 : 2h 12mn
Overall bit rate                         : 981 Kbps
Writing application                      : Lavf52.84.0

Video
ID                                       : 0
Format                                   : MPEG-4 Visual
Format profile                           : [email protected]
Format settings, BVOP                    : No
Format settings, QPel                    : No
Format settings, GMC                     : No warppoints
Format settings, Matrix                  : Default (H.263)
Codec ID                                 : XVID
Codec ID/Hint                            : XviD
Duration                                 : 2h 12mn
Bit rate                                 : 839 Kbps
Width                                    : 600 pixels
Height                                   : 320 pixels
Display aspect ratio                     : 1.85:1
Frame rate                               : 29.970 fps
Color space                              : YUV
Chroma subsampling                       : 4:2:0
Bit depth                                : 8 bits
Scan type                                : Progressive
Compression mode                         : Lossy
Bits/(Pixel*Frame)                       : 0.146
Stream size                              : 797 MiB (86%)
Writing library                          : Lavc52.97.0

Audio
ID                                       : 1
Format                                   : MPEG Audio
Format version                           : Version 1
Format profile                           : Layer 3
Mode                                     : Joint stereo
Codec ID                                 : 55
Codec ID/Hint                            : MP3
Duration                                 : 2h 12mn
Bit rate mode                            : Constant
Bit rate                                 : 128 Kbps
Channel(s)                               : 2 channels
Sampling rate                            : 48.0 KHz
Compression mode                         : Lossy
Stream size                              : 122 MiB (13%)
Alignment                                : Aligned on interleaves
Interleave, duration                     : 24 ms (0.72 video frame)
Interleave, preload duration             : 24 ms
Writing library                          : LAME3.98.4






http://www23.zippyshare.com/v/21224374/file.html
http://www78.zippyshare.com/v/90753638/file.html
http://www54.zippyshare.com/v/7197998/file.html
http://www31.zippyshare.com/v/41112264/file.html
http://www7.zippyshare.com/v/72543979/file.html
The Amazing Spiderman 2 [TSHQ][VOSE][2014]
0 Puntos Score: 0/10
Visitas: 3189 Favoritos: 1
2 Comentarios The Amazing Spiderman 2 [TSHQ][VOSE][2014]
Para dejar un comentario Registrate! o.. eres ya usuario? Accede!