Need For Speed [HDSCR][Latino][2014]




Tobey Marshall (Aaron Paul) es un humilde mecánico que intenta sacar adelante su taller de reparaciones de la mejor manera posible. Como el dinero no le llega, participa en carreras ilegales al volante de coches clásicos cuyos motores han sido trucados. Cuando está a punto de saldar sus deudas, el ex piloto de NASCAR Dino Brewster (Dominic Cooper) le delata. Tobey pasa dos años en la cárcel. Cuando sale, sólo piensa en vengarse de Dino. Pero para ello tendrá que recorrer los Estados Unidos de costa a costa, en una contrarreloj muy peligrosa porque la policía irá siempre pisándole los talones.



Título: Need for Speed
Título original: Need for Speed
Dirección: Scott Waugh
País: Estados Unidos
Año: 2014
Fecha de estreno: 04/04/2014
Duración: 132 min
Género: Criminal, Drama, Acción
Calificación: No recomendada para menores de 16 años
Reparto: Michael Keaton, Aaron Paul, Imogen Poots, Dominic Cooper, Ramon Rodriguez, Rami Malek, Harrison Gilbertson, Dakota Johnson, Nick Chinlund
Web: Need for Speed
Distribuidora: DeA Planeta Home Entertainment
Productora: DreamWorks SKG, Reliance Entertainment, Bandito Brothers, Electronic Arts (EA)

General
Format                                   : AVI
Format/Info                              : Audio Video Interleave
File size                                : 1 002 MiB
Duration                                 : 2h 10mn
Overall bit rate mode                    : Variable
Overall bit rate                         : 1 073 Kbps
Writing application                      : Lavf52.84.0

Video
ID                                       : 0
Format                                   : MPEG-4 Visual
Format profile                           : [email protected]
Format settings, BVOP                    : No
Format settings, QPel                    : No
Format settings, GMC                     : No warppoints
Format settings, Matrix                  : Default (H.263)
Codec ID                                 : XVID
Codec ID/Hint                            : XviD
Duration                                 : 2h 10mn
Bit rate                                 : 867 Kbps
Width                                    : 720 pixels
Height                                   : 288 pixels
Display aspect ratio                     : 2.500
Frame rate                               : 29.970 fps
Color space                              : YUV
Chroma subsampling                       : 4:2:0
Bit depth                                : 8 bits
Scan type                                : Progressive
Compression mode                         : Lossy
Bits/(Pixel*Frame)                       : 0.139
Stream size                              : 809 MiB (81%)
Writing library                          : Lavc52.97.0

Audio
ID                                       : 1
Format                                   : MPEG Audio
Format version                           : Version 1
Format profile                           : Layer 3
Mode                                     : Joint stereo
Codec ID                                 : 55
Codec ID/Hint                            : MP3
Duration                                 : 2h 10mn
Bit rate mode                            : Variable
Bit rate                                 : 192 Kbps
Channel(s)                               : 2 channels
Sampling rate                            : 48.0 KHz
Compression mode                         : Lossy
Stream size                              : 179 MiB (18%)
Alignment                                : Aligned on interleaves
Interleave, duration                     : 24 ms (0.72 video frame)
Interleave, preload duration             : 24 ms






http://www54.zippyshare.com/v/8662447/file.html
http://www10.zippyshare.com/v/69011899/file.html
http://www14.zippyshare.com/v/67369990/file.html
http://www25.zippyshare.com/v/74183765/file.html
Need For Speed [HDSCR][Latino][2014]
25 Puntos Score: 6.3/10
Visitas: 10954 Favoritos: 7
Ver los usuarios que votaron...
14 Comentarios Need For Speed [HDSCR][Latino][2014]
gracias amigo descargando
link caidos cuek
links bien   buena porte
descargando  
Todo funka bien gracias por el aporte
Muchas gracias!!  
acaban de eliminar los link?
         
amigo la puedes subir denuevo y te van +10
Cita fenixpako: Mostrar
intentare subirla hoy.
Cita jeb_calix: Mostrar
Cita xskebix: Mostrar
gracias sr, muy amable
GRACIAS POR LA PELICULA
Para dejar un comentario Registrate! o.. eres ya usuario? Accede!