Capitan America 2 [TSHQ][VOSE][2014]




Secuela de 'Capitán América: El primer vengador'. La acción tiene lugar en Washington DC en el presente. En esta ocasión, Steve Rogers (Chris Evans) unirá sus fuerzas a Natasha Romanoff, alias la Viuda Negra (Scarlett Johansson), para librar una batalla asombrosa contra un enemigo muy duro y difícil de domesticar. Éste no es otro que un soviético que recibe el apodo de Soldado de Invierno. El futuro de la humanidad depende de la victoria del Capitán América. Pero ni siquiera los superhéroes son invencibles.



Título: Capitán América: el Soldado de Invierno
Título original: Captain America: The Winter Soldier
Dirección: Joe Russo, Anthony Russo
País: Estados Unidos
Año: 2014
Fecha de estreno: 28/03/2014
Duración: 136 min
Género: Aventuras, Acción, Ciencia ficción
Calificación: No recomendada para menores de 12 años
Reparto: Chris Evans, Samuel L. Jackson, Sebastian Stan, Anthony Mackie, Frank Grillo, Scarlett Johansson, Cobie Smulders, Toby Jones, Emily VanCamp, Hayley Atwell
Web: Marvel's Captain America | The Winter Soldier | The Official Site
Distribuidora: Walt Disney Studios Motion Pictures
Productora: Marvel Studios, Marvel Entertainment, LLC

General
Format                                   : MPEG-4
Format profile                           : Base Media
Codec ID                                 : isom
File size                                : 819 MiB
Duration                                 : 2h 15mn
Overall bit rate mode                    : Variable
Overall bit rate                         : 847 Kbps
Writing application                      : Lavf54.63.104

Video
ID                                       : 1
Format                                   : AVC
Format/Info                              : Advanced Video Codec
Format profile                           : [email protected]
Format settings, CABAC                   : Yes
Format settings, ReFrames                : 4 frames
Codec ID                                 : avc1
Codec ID/Info                            : Advanced Video Coding
Duration                                 : 2h 15mn
Bit rate                                 : 750 Kbps
Width                                    : 720 pixels
Height                                   : 304 pixels
Display aspect ratio                     : 2.35:1
Frame rate mode                          : Constant
Frame rate                               : 29.970 fps
Color space                              : YUV
Chroma subsampling                       : 4:2:0
Bit depth                                : 8 bits
Scan type                                : Progressive
Bits/(Pixel*Frame)                       : 0.114
Stream size                              : 734 MiB (90%)
Writing library                          : x264 core 120 r2151 a3f4407
Encoding settings                        : cabac=1 / ref=3 / deblock=1:0:0 / analyse=0x3:0x113 / me=hex / subme=7 / psy=1 / psy_rd=1.00:0.00 / mixed_ref=1 / me_range=16 / chroma_me=1 / trellis=1 / 8x8dct=1 / cqm=0 / deadzone=21,11 / fast_pskip=1 / chroma_qp_offset=-2 / threads=16 / sliced_threads=0 / nr=0 / decimate=1 / interlaced=0 / bluray_compat=0 / constrained_intra=0 / bframes=3 / b_pyramid=2 / b_adapt=1 / b_bias=0 / direct=1 / weightb=1 / open_gop=0 / weightp=2 / keyint=25 / keyint_min=2 / scenecut=40 / intra_refresh=0 / rc_lookahead=25 / rc=abr / mbtree=1 / bitrate=750 / ratetol=1.0 / qcomp=0.60 / qpmin=0 / qpmax=69 / qpstep=4 / ip_ratio=1.40 / aq=1:1.00

Audio
ID                                       : 2
Format                                   : AAC
Format/Info                              : Advanced Audio Codec
Format profile                           : LC
Codec ID                                 : 40
Duration                                 : 2h 15mn
Duration_LastFrame                       : -5ms
Bit rate mode                            : Variable
Bit rate                                 : 82.7 Kbps
Maximum bit rate                         : 128 Kbps
Channel(s)                               : 2 channels
Channel positions                        : Front: L R
Sampling rate                            : 24.0 KHz
Compression mode                         : Lossy
Stream size                              : 80.0 MiB (10%)






http://www38.zippyshare.com/v/16739786/file.html
http://www64.zippyshare.com/v/79730554/file.html
http://www52.zippyshare.com/v/2840204/file.html
http://www75.zippyshare.com/v/74302626/file.html
http://www34.zippyshare.com/v/12042065/file.html
Capitan America 2 [TSHQ][VOSE][2014]
5 Puntos Score: 5/10
Visitas: 6232 Favoritos: 4
Ver los usuarios que votaron...
13 Comentarios Capitan America 2 [TSHQ][VOSE][2014]
esas son las caputuras reales de la peli
aun que wl mareo no afecta a todos
Cita mistivex: Mostrar
si lo son... al igual que sus especificaciones
@xskebix  y el audio?? que tal esta es de cine?
Bajando, gracias..........
se muy mal sorry
Muchas Gracias.
descargando gracias
cuando sale una version mas limpia que esta ?
Para dejar un comentario Registrate! o.. eres ya usuario? Accede!