Capitan America 2 [TSHQ][Castellano][2014]




Secuela de 'Capitán América: El primer vengador'. La acción tiene lugar en Washington DC en el presente. En esta ocasión, Steve Rogers (Chris Evans) unirá sus fuerzas a Natasha Romanoff, alias la Viuda Negra (Scarlett Johansson), para librar una batalla asombrosa contra un enemigo muy duro y difícil de domesticar. Éste no es otro que un soviético que recibe el apodo de Soldado de Invierno. El futuro de la humanidad depende de la victoria del Capitán América. Pero ni siquiera los superhéroes son invencibles.



Título: Capitán América: el Soldado de Invierno
Título original: Captain America: The Winter Soldier
Dirección: Joe Russo, Anthony Russo
País: Estados Unidos
Año: 2014
Fecha de estreno: 28/03/2014
Duración: 136 min
Género: Aventuras, Acción, Ciencia ficción
Calificación: No recomendada para menores de 12 años
Reparto: Chris Evans, Samuel L. Jackson, Sebastian Stan, Anthony Mackie, Frank Grillo, Scarlett Johansson, Cobie Smulders, Toby Jones, Emily VanCamp, Hayley Atwell
Web: Marvel's Captain America | The Winter Soldier | The Official Site
Distribuidora: Walt Disney Studios Motion Pictures
Productora: Marvel Studios, Marvel Entertainment, LLC

General
Format                                   : MPEG-4
Format profile                           : Base Media / Version 2
Codec ID                                 : mp42
File size                                : 988 MiB
Duration                                 : 2h 9mn
Overall bit rate mode                    : Variable
Overall bit rate                         : 1 065 Kbps
Encoded date                             : UTC 2014-04-13 01:33:42
Tagged date                              : UTC 2014-04-13 02:01:46
Writing application                      : DVDFab

Video
ID                                       : 1
Format                                   : AVC
Format/Info                              : Advanced Video Codec
Format profile                           : [email protected]
Format settings, CABAC                   : Yes
Format settings, ReFrames                : 1 frame
Codec ID                                 : avc1
Codec ID/Info                            : Advanced Video Coding
Duration                                 : 2h 9mn
Bit rate mode                            : Variable
Bit rate                                 : 933 Kbps
Width                                    : 1 280 pixels
Height                                   : 520 pixels
Display aspect ratio                     : 2.462
Frame rate mode                          : Constant
Frame rate                               : 25.000 fps
Color space                              : YUV
Chroma subsampling                       : 4:2:0
Bit depth                                : 8 bits
Scan type                                : Progressive
Bits/(Pixel*Frame)                       : 0.056
Stream size                              : 866 MiB (88%)
Writing library                          : x264 core
Encoded date                             : UTC 2014-04-13 01:33:42
Tagged date                              : UTC 2014-04-13 02:01:42
Color primaries                          : BT.709-5, BT.1361, IEC 61966-2-4, SMPTE RP177
Transfer characteristics                 : BT.709-5, BT.1361
Matrix coefficients                      : BT.709-5, BT.1361, IEC 61966-2-4 709, SMPTE RP177

Audio
ID                                       : 2
Format                                   : AAC
Format/Info                              : Advanced Audio Codec
Format profile                           : LC
Codec ID                                 : 40
Duration                                 : 2h 9mn
Bit rate mode                            : Variable
Bit rate                                 : 128 Kbps
Maximum bit rate                         : 173 Kbps
Channel(s)                               : 2 channels
Channel positions                        : Front: L R
Sampling rate                            : 48.0 KHz
Compression mode                         : Lossy
Stream size                              : 119 MiB (12%)
Encoded date                             : UTC 2014-04-13 01:33:42
Tagged date                              : UTC 2014-04-13 02:00:39






http://www19.zippyshare.com/v/493015/file.html
http://www66.zippyshare.com/v/31474932/file.html
http://www12.zippyshare.com/v/61275577/file.html
http://www12.zippyshare.com/v/71453385/file.html
http://www20.zippyshare.com/v/99443337/file.html
Capitan America 2 [TSHQ][Castellano][2014]
0 Puntos Score: 0/10
Visitas: 3149 Favoritos: 2
1 Comentarios Capitan America 2 [TSHQ][Castellano][2014]
Para dejar un comentario Registrate! o.. eres ya usuario? Accede!