9 Meses de Condena[BRSCR][Castellano][2013]




Ariane Felder (Sandrine Kiberlain) es la jueza del distrito. Es una mujer de altísimas convicciones éticas y morales. En eso no hay ningún problema. El problema es que se acaba de quedar embarazada... de un criminal. Su nombre es Bob Nolan (Albert Dupontel), y es sospechoso de asesinato. De ahí que la gestación del bebé se convierta en una especie de condena para la propia jueza, que se preguntará mil veces por qué se acostaría con ese tío...



Título: 9 meses... ¡de condena!
Título original: 9 Mois Ferme
Dirección: Albert Dupontel
País: Francia
Año: 2013
Fecha de estreno: 11/04/2014
Duración: 82 min
Género: Comedia
Reparto: Sandrine Kiberlain, Albert Dupontel, Philippe Uchan, Nicolas Marié, Bouli Lanners, Gilles Gaston-Dreyfus, Christian Hecq, Philippe Duquesne
Distribuidora: Vertigo Films
Productora: Wild Bunch, Manchester Films

General
Format                                   : MPEG-4
Format profile                           : Base Media
Codec ID                                 : isom
File size                                : 489 MiB
Duration                                 : 1h 22mn
Overall bit rate mode                    : Variable
Overall bit rate                         : 834 Kbps
Writing application                      : Lavf54.63.104

Video
ID                                       : 1
Format                                   : AVC
Format/Info                              : Advanced Video Codec
Format profile                           : [email protected]
Format settings, CABAC                   : Yes
Format settings, ReFrames                : 4 frames
Codec ID                                 : avc1
Codec ID/Info                            : Advanced Video Coding
Duration                                 : 1h 22mn
Bit rate                                 : 750 Kbps
Width                                    : 720 pixels
Height                                   : 304 pixels
Display aspect ratio                     : 2.35:1
Frame rate mode                          : Constant
Frame rate                               : 23.976 fps
Color space                              : YUV
Chroma subsampling                       : 4:2:0
Bit depth                                : 8 bits
Scan type                                : Progressive
Bits/(Pixel*Frame)                       : 0.143
Stream size                              : 438 MiB (90%)
Writing library                          : x264 core 120 r2151 a3f4407
Encoding settings                        : cabac=1 / ref=3 / deblock=1:0:0 / analyse=0x3:0x113 / me=hex / subme=7 / psy=1 / psy_rd=1.00:0.00 / mixed_ref=1 / me_range=16 / chroma_me=1 / trellis=1 / 8x8dct=1 / cqm=0 / deadzone=21,11 / fast_pskip=1 / chroma_qp_offset=-2 / threads=16 / sliced_threads=0 / nr=0 / decimate=1 / interlaced=0 / bluray_compat=0 / constrained_intra=0 / bframes=3 / b_pyramid=2 / b_adapt=1 / b_bias=0 / direct=1 / weightb=1 / open_gop=0 / weightp=2 / keyint=25 / keyint_min=2 / scenecut=40 / intra_refresh=0 / rc_lookahead=25 / rc=abr / mbtree=1 / bitrate=750 / ratetol=1.0 / qcomp=0.60 / qpmin=0 / qpmax=69 / qpstep=4 / ip_ratio=1.40 / aq=1:1.00

Audio
ID                                       : 2
Format                                   : AAC
Format/Info                              : Advanced Audio Codec
Format profile                           : LC
Codec ID                                 : 40
Duration                                 : 1h 22mn
Duration_LastFrame                       : -27ms
Bit rate mode                            : Variable
Bit rate                                 : 82.7 Kbps
Maximum bit rate                         : 128 Kbps
Channel(s)                               : 2 channels
Channel positions                        : Front: L R
Sampling rate                            : 24.0 KHz
Compression mode                         : Lossy
Stream size                              : 48.5 MiB (10%)






http://www37.zippyshare.com/v/67363485/file.html
http://www78.zippyshare.com/v/69181491/file.html
http://www60.zippyshare.com/v/34171640/file.html
9 Meses de Condena[BRSCR][Castellano][2013]
0 Puntos Score: 0/10
Visitas: 866 Favoritos: 1
0 Comentarios 9 Meses de Condena[BRSCR][Castellano][2013]
Este post no tiene comentarios. Sea el primero!
Para dejar un comentario Registrate! o.. eres ya usuario? Accede!