9 Meses de Condena[HDRip][VOSE][2013]




Ariane Felder (Sandrine Kiberlain) es la jueza del distrito. Es una mujer de altísimas convicciones éticas y morales. En eso no hay ningún problema. El problema es que se acaba de quedar embarazada... de un criminal. Su nombre es Bob Nolan (Albert Dupontel), y es sospechoso de asesinato. De ahí que la gestación del bebé se convierta en una especie de condena para la propia jueza, que se preguntará mil veces por qué se acostaría con ese tío...



Título: 9 meses... ¡de condena!
Título original: 9 Mois Ferme
Dirección: Albert Dupontel
País: Francia
Año: 2013
Fecha de estreno: 11/04/2014
Duración: 82 min
Género: Comedia
Reparto: Sandrine Kiberlain, Albert Dupontel, Philippe Uchan, Nicolas Marié, Bouli Lanners, Gilles Gaston-Dreyfus, Christian Hecq, Philippe Duquesne
Distribuidora: Vertigo Films
Productora: Wild Bunch, Manchester Films

General
Format                                   : AVI
Format/Info                              : Audio Video Interleave
File size                                : 749 MiB
Duration                                 : 1h 22mn
Overall bit rate                         : 1 276 Kbps
Writing application                      : Lavf52.84.0

Video
ID                                       : 0
Format                                   : MPEG-4 Visual
Codec ID                                 : FMP4
Duration                                 : 1h 22mn
Bit rate                                 : 1 135 Kbps
Width                                    : 720 pixels
Height                                   : 304 pixels
Display aspect ratio                     : 2.35:1
Frame rate                               : 23.976 fps
Color space                              : YUV
Chroma subsampling                       : 4:2:0
Compression mode                         : Lossy
Bits/(Pixel*Frame)                       : 0.216
Stream size                              : 666 MiB (89%)

Audio
ID                                       : 1
Format                                   : MPEG Audio
Format version                           : Version 1
Format profile                           : Layer 3
Mode                                     : Joint stereo
Mode extension                           : MS Stereo
Codec ID                                 : 55
Codec ID/Hint                            : MP3
Duration                                 : 1h 22mn
Bit rate mode                            : Constant
Bit rate                                 : 128 Kbps
Channel(s)                               : 2 channels
Sampling rate                            : 48.0 KHz
Compression mode                         : Lossy
Stream size                              : 75.1 MiB (10%)
Alignment                                : Aligned on interleaves
Interleave, duration                     : 24 ms (0.58 video frame)
Writing library                          : LAME3.98.4






http://www63.zippyshare.com/v/9652770/file.html
http://www37.zippyshare.com/v/57732832/file.html
http://www58.zippyshare.com/v/21385764/file.html
http://www77.zippyshare.com/v/21162131/file.html
9 Meses de Condena[HDRip][VOSE][2013]
0 Puntos Score: 0/10
Visitas: 1223 Favoritos: 0
0 Comentarios 9 Meses de Condena[HDRip][VOSE][2013]
Este post no tiene comentarios. Sea el primero!
Para dejar un comentario Registrate! o.. eres ya usuario? Accede!