Wolfmaster3008
"Cuando llegas al fondo solo queda una opción.. Subir.!"

Maken ki Two Special 01 BD

Maken ki Two Special 01 BD



Hola a todos los amigos de identi.. Este es mi primer post.. acepto sugerencias y recomendaciones.. sigamos haciendo crecer esta comunidad.! 

Este es el Especial numero 01 que se incluye en el BD.. Sin Censura.! que lo disfruten.


General
Complete name                            : maken ki 2 special 01.mp4
Format                                   : MPEG-4
Format profile                           : Base Media
Codec ID                                 : isom
File size                                : 100 MiB
Duration                                 : 5mn 18s
Overall bit rate mode                    : Variable
Overall bit rate                         : 2 637 Kbps
Encoded date                             : UTC 2014-04-23 18:06:42
Tagged date                              : UTC 2014-04-23 18:06:42

Video
ID                                       : 1
Format                                   : AVC
Format/Info                              : Advanced Video Codec
Format profile                           : [email protected]
Format settings, CABAC                   : Yes
Format settings, ReFrames                : 4 frames
Codec ID                                 : avc1
Codec ID/Info                            : Advanced Video Coding
Duration                                 : 5mn 18s
Bit rate                                 : 2 561 Kbps
Maximum bit rate                         : 10.6 Mbps
Width                                    : 1 280 pixels
Height                                   : 720 pixels
Display aspect ratio                     : 16:9
Frame rate mode                          : Constant
Frame rate                               : 23.976 fps
Color space                              : YUV
Chroma subsampling                       : 4:2:0
Bit depth                                : 8 bits
Scan type                                : Progressive
Bits/(Pixel*Frame)                       : 0.116
Stream size                              : 97.6 MiB (97%)

Encoded date                             : UTC 2014-04-23 18:06:42
Tagged date                              : UTC 2014-04-23 18:06:42

Audio
ID                                       : 2
Format                                   : AAC
Format/Info                              : Advanced Audio Codec
Format profile                           : HE-AAC / LC
Codec ID                                 : 40
Duration                                 : 5mn 18s
Bit rate mode                            : Variable
Bit rate                                 : 64.0 Kbps
Maximum bit rate                         : 72.0 Kbps
Channel(s)                               : 2 channels
Channel positions                        : Front: L R
Sampling rate                            : 48.0 KHz / 24.0 KHz
Compression mode                         : Lossy
Stream size                              : 2.43 MiB (2%)
Encoded date                             : UTC 2014-04-23 18:06:42
Tagged date                              : UTC 2014-04-23 18:06:42




Enlaces De Descarga


no posee.
Maken ki Two Special 01 BD
35 Puntos Score: 7/10
Visitas: 1412 Favoritos: 5
Ver los usuarios que votaron...
10 Comentarios Maken ki Two Special 01 BD
jojo tus primeros +10
Buen post amigo, te dejo lo que me queda +5
muchas gracias aqui van + 10
tiene censura ????
Cita primo3000: Mostrar
Este es el Especial numero 01 que se incluye en el BD.. Sin Censura.! que lo disfruten.
sabes cuanto tardar?
Ehmmm y los demas que fue xd?
Para dejar un comentario Registrate! o.. eres ya usuario? Accede!